请选择 进入手机版 | 继续访问电脑版

YMLY-影迷乐园-特效字幕 蓝光原盘 1080P 高清动漫电影电视剧

 找回密码
 立即注册
搜索
查看: 197|回复: 9

[美国] [百度][2019][1080P][西班牙公主][中英字幕.简中字幕][MKV][12.93GB][The.Spanish.Princess.2019.1080p.WEB-DL.x265.10bit.AC3£cXcY@FRDS]

[复制链接]
  • TA的每日心情
    慵懒
    2 小时前
  • 签到天数: 271 天

    [LV.8]以坛为家I

    450

    主题

    801

    帖子

    2401

    积分

    稀有影迷

    Rank: 12Rank: 12Rank: 12

    积分
    2401

    土豪勋章小土豪勋章主题达人百分百好孩子最佳新人影迷男神

    发表于 2020-1-27 12:09:57 | 显示全部楼层 |阅读模式
    ----转载自FRDS,感谢压制和原发布人员,特此鸣谢!----


    制作说明:

    ASS中英字幕:YYeTs(Zimuzu) SRT简中字幕:YYeTs(Zimuzu)

    ◎译  名 西班牙公主
    ◎片  名 The Spanish Princess
    ◎年  代 2019
    ◎产  地 美国
    ◎类  别 剧情 / 历史
    ◎语  言 英语
    ◎上映日期 2019-05-05(美国)
    ◎IMDb评分  6.7/10 from 2354 users
    ◎IMDb链接  https://www.imdb.com/title/tt8417308
    ◎豆瓣评分 7.0/10 from 1181 users
    ◎豆瓣链接 https://movie.douban.com/subject/30171417/
    ◎集  数 8
    ◎片  长 56分钟
    ◎导  演 波吉特·斯塔莫 Birgitte Stærmose / 戴纳·里德 Daina Reid / 丽莎·克拉克 Lisa Clarke
    ◎编  剧 海伦·奇尔德雷斯 Helen Childress / 艾玛·弗罗斯特 Emma Frost / 马修·格雷厄姆 Matthew Graham
    ◎主  演 夏洛特·霍普 Charlotte Hope
           艾略特·科万 Elliot Cowan
           斯图尔特·麦克尼尔 Stuart McNeil
           卢埃里·奥康纳 Ruairi O'Connor
           乔丹·伦佐 Jordan Renzo
           奥利 瑞克斯 Olly Rix
           艾伦·麦肯纳 Alan McKenna
           哈丽特·瓦尔特 Harriet Walter
           劳拉·卡尔迈克尔 Laura Carmichael
           艾丽西娅·博拉切罗 Alicia Borrachero
           丹尼尔·切尔奎拉 Daniel Cerqueira
           乔芝·韩莉 Georgie Henley
           摩根·琼斯 Morgan Jones
           亚历山德拉·摩恩 Alexandra Moen
           亚瑟·贝特曼 Arthur Bateman
           阿尔瓦·加洛莎 Alba Galocha
           安格斯·里 Angus Imrie
           帕特里克·吉布森 Patrick Gibson
           肯尼思·库兰汉姆 Kenneth Cranham
           卢卡·佩洛斯 Luka Peros
           菲利普·安德鲁 Philip Andrew
           杰克·巴格思 Jack Baggs
           格雷厄姆·福克斯 Grahame Fox
           菲利普·麦金利 Philip McGinley



    ◎简  介  

      Starz过去宣布拍摄《白王后 The White Queen》及《白公主 The White Princess》的姐妹篇限定剧《西班牙公主 The Spanish Princess》,由Charlot te Hope饰演女主角。该剧根据Philippa Gre gory所著的小说《The Constant Princess》及《The King’s Curse》改编,现定于美国时间5月8日首播。
      《西班牙公主》主角为「亚拉冈的凯瑟琳」(Catherine of Aragon,Charlotte Hope饰演),漂亮﹑聪明﹑出身自西班牙王室的她因为政治婚姻下,带着摩尔人女官Lina来到英国并嫁给威尔士王子亚瑟,女主亦因此成了威尔士王妃,然而二人尚未洞房亚瑟就因病去世。亚拉冈的凯瑟琳声称自己尚为处女,而如果上一段婚姻能判定为无效,那她就可以嫁给亨利七世的次子亨利(未来他继任为亨利八世)。
      其他主演包括Stephanie Levi-John﹑Nadia Parkes﹑Aaron Cobham﹑Angus Imrie﹑Dame Harriet Walter﹑Laura Carmichael﹑Ruairi O’Connor﹑Georgie Henley﹑Elliot Cowan﹑Alexandra Moen﹑Philip Cumbus﹑Alan McKenna。
    1. General
    2. Unique ID                      : 235146102464375903690977372042135063248 (0xB0E77DF3FCE378739CBF1113F1C3CAD0)
    3. Complete name                  : F:\TVB\西班牙公主.The.Spanish.Princess.E01-E08.2019.1080p.WEB-DL.x265.AC3-FRDS\The.Spanish.Princess.E01.2019.1080p.WEB-DL.x265.10bit.AC3£cXcY@FRDS.mkv
    4. Format                         : Matroska
    5. Format version                 : Version 4 / Version 2
    6. File size                      : 1.57 GiB
    7. Duration                       : 55 min 59 s
    8. Overall bit rate               : 4 015 kb/s
    9. Movie name                     : cXcY@FRDS
    10. Encoded date                   : UTC 2019-12-24 08:06:25
    11. Writing application            : mkvmerge v7.9.0 ('Birds') 32bit
    12. Writing library                : libebml v1.3.1 + libmatroska v1.4.2

    13. Video
    14. ID                             : 1
    15. Format                         : HEVC
    16. Format/Info                    : High Efficiency Video Coding
    17. Format profile                 : Main 10@L4@Main
    18. Codec ID                       : V_MPEGH/ISO/HEVC
    19. Duration                       : 55 min 59 s
    20. Bit rate                       : 3 487 kb/s
    21. Width                          : 1 920 pixels
    22. Height                         : 1 080 pixels
    23. Display aspect ratio           : 16:9
    24. Frame rate mode                : Constant
    25. Frame rate                     : 23.976 (24000/1001) FPS
    26. Color space                    : YUV
    27. Chroma subsampling             : 4:2:0
    28. Bit depth                      : 10 bits
    29. Bits/(Pixel*Frame)             : 0.070
    30. Stream size                    : 1.36 GiB (87%)
    31. Writing library                : x265 3.1.1+1-04b37fdfd2dc:[Windows][GCC 5.4.0][32 bit][noasm] 10bit

    32. Default                        : Yes
    33. Forced                         : No
    34. Color range                    : Limited

    35. Audio
    36. ID                             : 2
    37. Format                         : AC-3
    38. Format/Info                    : Audio Coding 3
    39. Codec ID                       : A_AC3
    40. Duration                       : 55 min 59 s
    41. Bit rate mode                  : Constant
    42. Bit rate                       : 448 kb/s
    43. Channel(s)                     : 6 channels
    44. Channel positions              : Front: L C R, Side: L R, LFE
    45. Sampling rate                  : 44.1 kHz
    46. Frame rate                     : 28.711 FPS (1536 SPF)
    47. Bit depth                      : 16 bits
    48. Compression mode               : Lossy
    49. Stream size                    : 179 MiB (11%)
    50. Title                          : Eng-DD5.1£cXcY
    51. Language                       : English
    52. Service kind                   : Complete Main
    53. Default                        : Yes
    54. Forced                         : No

    55. Text #1
    56. ID                             : 3
    57. Format                         : ASS
    58. Codec ID                       : S_TEXT/ASS
    59. Codec ID/Info                  : Advanced Sub Station Alpha
    60. Compression mode               : Lossless
    61. Title                          : 中上英下-YYeTs-ASS£cXcY
    62. Language                       : Chinese
    63. Default                        : Yes
    64. Forced                         : No

    65. Text #2
    66. ID                             : 4
    67. Format                         : UTF-8
    68. Codec ID                       : S_TEXT/UTF8
    69. Codec ID/Info                  : UTF-8 Plain Text
    70. Title                          : 简体中文-YYeTs-SRT£cXcY
    71. Language                       : Chinese
    72. Default                        : No
    73. Forced                         : No

    复制代码



    购买主题 已有 5 人购买  本主题需向作者支付 20 大洋 才能浏览
    回复

    使用道具 举报

  • TA的每日心情
    奋斗
    昨天 10:46
  • 签到天数: 365 天

    [LV.9]以坛为家II

    5

    主题

    453

    帖子

    481

    积分

    专业影迷

    Rank: 8Rank: 8

    积分
    481
    发表于 2020-1-27 14:11:37 | 显示全部楼层
    谢谢楼主分享,楼主辛苦了!祝楼主新年快乐!
    回复

    使用道具 举报

  • TA的每日心情
    开心
    2020-3-22 10:18
  • 签到天数: 207 天

    [LV.7]常住居民III

    10

    主题

    2263

    帖子

    760

    积分

    专业影迷

    Rank: 8Rank: 8

    积分
    760

    小土豪勋章土豪勋章

    发表于 2020-1-27 16:03:12 | 显示全部楼层
    感谢分享。
    1
    回复

    使用道具 举报

  • TA的每日心情

    2019-10-24 00:15
  • 签到天数: 5 天

    [LV.2]偶尔看看I

    0

    主题

    343

    帖子

    18

    积分

    入门影迷

    Rank: 1

    积分
    18
    发表于 2020-1-28 08:21:36 | 显示全部楼层
    感谢分享                  
    回复

    使用道具 举报

  • TA的每日心情
    开心
    昨天 18:50
  • 签到天数: 129 天

    [LV.7]常住居民III

    2

    主题

    321

    帖子

    35

    积分

    初级影迷

    Rank: 2

    积分
    35
    发表于 2020-1-28 12:19:04 | 显示全部楼层
    楼主辛苦,感谢分享。
    回复

    使用道具 举报

  • TA的每日心情
    无聊
    昨天 22:21
  • 签到天数: 51 天

    [LV.5]常住居民I

    0

    主题

    112

    帖子

    43

    积分

    初级影迷

    Rank: 2

    积分
    43
    发表于 2020-1-28 16:52:15 | 显示全部楼层
    感谢分享..
    回复

    使用道具 举报

  • TA的每日心情
    奋斗
    昨天 09:55
  • 签到天数: 337 天

    [LV.8]以坛为家I

    33

    主题

    3879

    帖子

    375

    积分

    超级影迷

    Rank: 6Rank: 6

    积分
    375
    发表于 2020-1-29 10:13:55 | 显示全部楼层
    谢谢楼主分享!辛苦了
    回复

    使用道具 举报

  • TA的每日心情
    开心
    昨天 15:54
  • 签到天数: 90 天

    [LV.6]常住居民II

    6

    主题

    1223

    帖子

    159

    积分

    高级影迷

    Rank: 4

    积分
    159
    发表于 2020-1-30 17:42:25 | 显示全部楼层
    好资源 支持
    回复

    使用道具 举报

  • TA的每日心情
    开心
    前天 19:54
  • 签到天数: 18 天

    [LV.4]偶尔看看III

    0

    主题

    43

    帖子

    27

    积分

    初级影迷

    Rank: 2

    积分
    27
    发表于 2020-3-9 19:22:19 | 显示全部楼层
    谢谢楼主了,这正是我想要的资源,再次感谢!
    回复

    使用道具 举报

  • TA的每日心情
    开心
    2020-3-24 21:14
  • 签到天数: 1 天

    [LV.1]初来乍到

    0

    主题

    35

    帖子

    2

    积分

    入门影迷

    Rank: 1

    积分
    2
    发表于 2020-3-26 10:42:58 | 显示全部楼层
    好资源 支持
    回复

    使用道具 举报

    您需要登录后才可以回帖 登录 | 立即注册

    本版积分规则

    QQ|Archiver|手机版|小黑屋|影迷乐园  

    GMT+8, 2020-4-4 03:32 , Processed in 0.169553 second(s), 35 queries .

    Powered by Discuz! X3.3

    © 2001-2017 Comsenz Inc.

    快速回复 返回顶部 返回列表