请选择 进入手机版 | 继续访问电脑版

YMLY-影迷乐园-特效字幕 蓝光原盘 1080P 高清动漫电影电视剧

 找回密码
 立即注册
搜索
查看: 275|回复: 8

[日本] [百度][2010-2013][1080P][SPEC.TV版+剧场版][日语外挂简体中字][MKV][90.69GB][SPEC.2010-2013.1080p.BluRay.x264-WIKI]

[复制链接]
  • TA的每日心情
    慵懒
    14 小时前
  • 签到天数: 269 天

    [LV.8]以坛为家I

    444

    主题

    787

    帖子

    2359

    积分

    稀有影迷

    Rank: 12Rank: 12Rank: 12

    积分
    2359

    土豪勋章小土豪勋章主题达人百分百好孩子最佳新人影迷男神

    发表于 2020-1-31 00:27:27 | 显示全部楼层 |阅读模式
    注:经下载第一集观察外挂字幕有几句缺失,基本不影响观看,因属个人喜爱剧集,所以本人并不介意这点,有介意者切勿购买!!!剧场版后三部内封字幕。











    ◎译  名 SPEC / SPEC - Keishichou kouanbu kouan daigoka mishou jiken tokubetsu taisakugakari jikenbo / SPEC 警视厅公安部公安第五课 未详事件特别对策系事件簿 / SPEC: First Blood / 超能力事件簿
    ◎片  名 〜警視庁公安部公安第五課 未詳事件特別対策係事件簿〜
    ◎年  代 2010
    ◎产  地 日本
    ◎类  别 剧情 / 悬疑
    ◎语  言 日语
    ◎上映日期 2010-10-08(日本)
    ◎IMDb评分  7.6/10 from 178 users
    ◎IMDb链接  https://www.imdb.com/title/tt1712150
    ◎豆瓣评分 8.7/10 from 51286 users
    ◎豆瓣链接 https://movie.douban.com/subject/4917705/
    ◎集  数 10
    ◎片  长 47分钟
    ◎导  演 堤幸彦 Yukihiko Tsutsumi / 加藤新 Shin Katô / 今井夏木 Natsuki Imai / 金子文纪 Fuminori Kaneko
    ◎编  剧 西荻弓絵 Yumie Nishiogi
    ◎主  演 户田惠梨香 Erika Toda
           加濑亮 Ryo Kase
           福田沙纪 Saki Fukuda
           城田优 Yuu Shirota
           竜雷太 Raita Ryû
           神木隆之介 Ryûnosuke Kamiki
           安田显 Ken Yasuda
           田中哲司 Tetsushi Tanaka
           德井优 Yu Tokui
           椎名桔平 Kippei Shiina
           真野惠里菜 Erina Mano
           有村架纯 Kasumi Arimura




    ◎简  介  

      日本警视厅特殊部队(SIT)小队长濑文焚流(加濑亮 饰),在一次执行任务时遭遇队友的离奇死亡,面对高层他百口莫辩,最终被调职到公安部公安第五课——不明事件调查科。该部门专门调查一些匪夷所思的超自然案件,当然在所谓“科学昌明”的现代化社会,这也意味着第五课是一个很难得到认可的边缘部门。除濑文外,第五课只有油滑的上司野野村光太郎和智商高达201的怪女孩当麻纱绫(户田惠梨香 饰)。在此期间,预言师、神之手等各种各样拥有超能力(SPEC)的人物接连登场。
      濑文在和当麻办案的过程中,渐渐趋近了一个鲜为人知且充满阴谋和秘密的未知世界……

    ◎获奖情况  

      第67届日剧学院赏(2011)
      最优秀作品奖(提名)
      最佳女主角 户田惠梨香
      最佳剧本 西荻弓绘
      最佳导演 加藤新 / 堤幸彦 / 今井夏木 / 金子文纪
    1. General
    2. Unique ID                      : 25996528994012793890456432712633195272 (0x138EBFD651300C135C62FFE12FA69B08)
    3. Complete name                  : F:\TVB\SPEC.E01.2010.1080p.BluRay.x264.mkv
    4. Format                         : Matroska
    5. Format version                 : Version 4 / Version 2
    6. File size                      : 4.96 GiB
    7. Duration                       : 1 h 8 min
    8. Overall bit rate mode          : Variable
    9. Overall bit rate               : 10.4 Mb/s
    10. Encoded date                   : UTC 2018-06-09 13:31:21
    11. Writing application            : mkvmerge v22.0.0 ('At The End Of The World') 64-bit
    12. Writing library                : libebml v1.3.5 + libmatroska v1.4.8

    13. Video
    14. ID                             : 1
    15. Format                         : AVC
    16. Format/Info                    : Advanced Video Codec
    17. Format profile                 : High@L4.1
    18. Format settings                : CABAC / 13 Ref Frames
    19. Format settings, CABAC         : Yes
    20. Format settings, ReFrames      : 13 frames
    21. Codec ID                       : V_MPEG4/ISO/AVC
    22. Duration                       : 1 h 8 min
    23. Bit rate                       : 9 670 kb/s
    24. Width                          : 1 920 pixels
    25. Height                         : 1 080 pixels
    26. Display aspect ratio           : 16:9
    27. Frame rate mode                : Constant
    28. Frame rate                     : 29.970 (30000/1001) FPS
    29. Color space                    : YUV
    30. Chroma subsampling             : 4:2:0
    31. Bit depth                      : 8 bits
    32. Scan type                      : Progressive
    33. Bits/(Pixel*Frame)             : 0.156
    34. Stream size                    : 4.62 GiB (93%)
    35. Writing library                : x264 core 155 maruQ

    36. Default                        : Yes
    37. Forced                         : No

    38. Audio
    39. ID                             : 2
    40. Format                         : FLAC
    41. Format/Info                    : Free Lossless Audio Codec
    42. Codec ID                       : A_FLAC
    43. Duration                       : 1 h 8 min
    44. Bit rate mode                  : Variable
    45. Bit rate                       : 710 kb/s
    46. Channel(s)                     : 2 channels
    47. Channel positions              : Front: L R
    48. Sampling rate                  : 48.0 kHz
    49. Frame rate                     : 11.719 FPS (4096 SPF)
    50. Bit depth                      : 16 bits
    51. Stream size                    : 347 MiB (7%)
    52. Writing library                : libFLAC 1.3.2 (UTC 2017-01-01)
    53. Language                       : Japanese
    54. Default                        : Yes
    55. Forced                         : No

    复制代码



    购买主题 已有 3 人购买  本主题需向作者支付 100 大洋 才能浏览
    回复

    使用道具 举报

  • TA的每日心情
    奋斗
    12 小时前
  • 签到天数: 336 天

    [LV.8]以坛为家I

    33

    主题

    3868

    帖子

    373

    积分

    超级影迷

    Rank: 6Rank: 6

    积分
    373
    发表于 2020-1-31 09:47:50 | 显示全部楼层
    资源发布得真是快啊!
    回复

    使用道具 举报

  • TA的每日心情
    开心
    2020-3-22 10:18
  • 签到天数: 207 天

    [LV.7]常住居民III

    10

    主题

    2263

    帖子

    760

    积分

    专业影迷

    Rank: 8Rank: 8

    积分
    760

    小土豪勋章土豪勋章

    发表于 2020-1-31 10:48:14 | 显示全部楼层
    感谢分享。
    1
    回复

    使用道具 举报

  • TA的每日心情
    无聊
    昨天 18:09
  • 签到天数: 51 天

    [LV.5]常住居民I

    0

    主题

    96

    帖子

    43

    积分

    初级影迷

    Rank: 2

    积分
    43
    发表于 2020-1-31 12:30:15 | 显示全部楼层
    这一部我很喜欢。。尤其妹子。。。
    回复

    使用道具 举报

  • TA的每日心情
    开心
    2020-2-7 01:05
  • 签到天数: 2 天

    [LV.1]初来乍到

    0

    主题

    29

    帖子

    25

    积分

    初级影迷

    Rank: 2

    积分
    25
    发表于 2020-2-7 01:12:57 | 显示全部楼层
    谢谢楼主的分享,谢谢楼主的分享。
    回复

    使用道具 举报

  • TA的每日心情
    擦汗
    20 小时前
  • 签到天数: 69 天

    [LV.6]常住居民II

    41

    主题

    720

    帖子

    260

    积分

    超级影迷

    Rank: 6Rank: 6

    积分
    260

    小土豪勋章

    发表于 2020-2-13 00:16:27 | 显示全部楼层
    经典日剧啊
    回复

    使用道具 举报

  • TA的每日心情
    开心
    2020-3-15 08:44
  • 签到天数: 1 天

    [LV.1]初来乍到

    0

    主题

    104

    帖子

    56

    积分

    初级影迷

    Rank: 2

    积分
    56
    QQ
    发表于 2020-3-16 10:02:39 | 显示全部楼层
    感谢分享。
    回复

    使用道具 举报

  • TA的每日心情
    开心
    昨天 08:59
  • 签到天数: 7 天

    [LV.3]偶尔看看II

    0

    主题

    71

    帖子

    10

    积分

    入门影迷

    Rank: 1

    积分
    10
    发表于 2020-3-25 12:58:12 | 显示全部楼层
    日本电影?不知道,没看过
    回复

    使用道具 举报

  • TA的每日心情
    慵懒
    3 天前
  • 签到天数: 2 天

    [LV.1]初来乍到

    1

    主题

    17

    帖子

    4

    积分

    入门影迷

    Rank: 1

    积分
    4
    发表于 4 天前 | 显示全部楼层

    感谢分享。
    回复

    使用道具 举报

    您需要登录后才可以回帖 登录 | 立即注册

    本版积分规则

    QQ|Archiver|手机版|小黑屋|影迷乐园  

    GMT+8, 2020-4-2 20:38 , Processed in 0.160092 second(s), 33 queries .

    Powered by Discuz! X3.3

    © 2001-2017 Comsenz Inc.

    快速回复 返回顶部 返回列表