请选择 进入手机版 | 继续访问电脑版

YMLY-影迷乐园-特效字幕 蓝光原盘 1080P 高清动漫电影电视剧

 找回密码
 立即注册
搜索
查看: 383|回复: 36

[大陆] [百度][2007][1080P][大明王朝1566][国语中字][陈宝国.黄志忠][46集全][MKV][48.89GB]

[复制链接]
  • TA的每日心情
    郁闷
    14 小时前
  • 签到天数: 66 天

    [LV.6]常住居民II

    41

    主题

    702

    帖子

    247

    积分

    高级影迷

    Rank: 4

    积分
    247

    小土豪勋章

    发表于 2020-2-11 00:24:16 | 显示全部楼层 |阅读模式
    该剧和走向共和齐名,豆瓣9.7,非常经典,我这是原盘制作的mkv格式,直接就能播放



    ◎译  名 嘉靖与海瑞 / 大明王朝1566:嘉靖与海瑞
    ◎片  名 大明王朝1566
    ◎年  代 2007
    ◎产  地 中国大陆
    ◎类  别 剧情 / 历史
    ◎语  言 汉语普通话
    ◎上映日期 2007-01-08(中国大陆) / 2017-02-13(中国大陆重播)
    ◎IMDb评分 9.3/10 from 84 users
    ◎IMDb链接 http://www.imdb.com/title/tt6424870
    ◎豆瓣评分 9.7/10 from 64859 users
    ◎豆瓣链接 https://movie.douban.com/subject/2210001/
    ◎集  数 46
    ◎片  长 42分钟
    ◎导  演 张黎 Li Zhang
    ◎编  剧 刘和平 Heping Liu
    ◎主  演 陈宝国 Baoguo Chen
          黄志忠 Zhi-zhong Huang
          倪大红 Dahong Ni
          王庆祥 Qingxiang Wang
          郭东文 Dongwen Guo
          郑玉 Yu Zheng
          张子健 Zijian Zhang
          闫妮 Ni Yan
          王雅捷 Yajie Wang
          祝希娟 Xijuan Zhu
          王劲松 Jinsong Wang
          赵立新 Lixin Zhao
          徐敏 Min Xu
          郭广平 Guangping Guo
          谭凯 Kai Tan
          肖竹 Zhu Xiao
          甘雨 Yu Gan
          张志坚 Zhijian Zhang
          刘毓滨 Yunbin Liu
          晋松 Song Jin
          徐光明 Guangming Xu
          刘立伟 Liwei Liu
          赵雍 Yong Zhao
          徐成峰 Chengfeng Xu
          王宇 Yu Wang
          陈之辉 Zhi-hui Chen
          杨涵斌 Hanbin Yang
          王戎 Rong Wang
          马小宁 Xiaoning Ma
          胡灵灵 Lingling Hu
          林海韵 Haiyun Lin
          三浦研一 Kenichi Miura
          穆泓屹 Hongyi Mu
          李婧 Jing Li
          浅野长英 Asano Nagahide


    ◎标  签 历史 | 国产电视剧 | 大明王朝 | 权谋 | 明朝 | 经典 | 电视剧 | 张黎

    ◎简  介  

      本剧讲述的是嘉靖与海瑞的故事。嘉靖三十九年,贪墨横行、民不聊生。奸臣严嵩(倪大红 饰)党羽密布、权倾朝野,清官海瑞(黄志忠 饰)不惧强权,敢于向腐朽封建的皇权发起挑战。皇帝朱厚熜(陈宝国 饰)练道修玄二十载,始终把控着大明朝的军政、经济大权。当时的中国经济发达,市井文化也算繁荣,但社会各阶层矛盾突出,国家大面积实施的土地兼并使千百万农民一夜之间失去了赖以生存的土地。严嵩的专权引起了地方各级官员的不满,“倒严”之声甚嚣尘上,从上至下、从里到外,从朝廷到地方官府,到处充斥着尔虞我诈、勾心斗角的血雨腥风。忠臣良将与乱臣贼子纷纷登上了当时的历史舞台......
    1. General
    2. Format                         : MPEG-4
    3. Format profile                 : Base Media
    4. Codec ID                       : isom (isom/iso2/avc1/mp41)
    5. File size                      : 1.07 GiB
    6. Duration                       : 47 min 21 s
    7. Overall bit rate               : 3 229 kb/s
    8. Writing application            : Lavf57.41.100
    9. FileExtension_Invalid          : braw mov mp4 m4v m4a m4b m4p m4r 3ga 3gpa 3gpp 3gp 3gpp2 3g2 k3g jpm jpx mqv ismv isma ismt f4a f4b f4v

    10. Video
    11. ID                             : 1
    12. Format                         : AVC
    13. Format/Info                    : Advanced Video Codec
    14. Format profile                 : High@L4
    15. Format settings                : CABAC / 4 Ref Frames
    16. Format settings, CABAC         : Yes
    17. Format settings, Reference fra : 4 frames
    18. Codec ID                       : avc1
    19. Codec ID/Info                  : Advanced Video Coding
    20. Duration                       : 47 min 21 s
    21. Bit rate                       : 3 000 kb/s
    22. Width                          : 1 920 pixels
    23. Height                         : 1 080 pixels
    24. Display aspect ratio           : 16:9
    25. Frame rate mode                : Constant
    26. Frame rate                     : 25.000 FPS
    27. Color space                    : YUV
    28. Chroma subsampling             : 4:2:0
    29. Bit depth                      : 8 bits
    30. Scan type                      : Progressive
    31. Bits/(Pixel*Frame)             : 0.058
    32. Stream size                    : 1.02 GiB (96%)
    33. Writing library                : x264 core 148
    34. Encoding settings              : cabac=1 / ref=3 / deblock=1:0:0 / analyse=0x3:0x113 / me=hex / subme=7 / psy=1 / psy_rd=1.00:0.00 / mixed_ref=1 / me_range=16 / chroma_me=1 / trellis=1 / 8x8dct=1 / cqm=0 / deadzone=21,11 / fast_pskip=1 / chroma_qp_offset=-2 / threads=6 / lookahead_threads=1 / sliced_threads=0 / nr=0 / decimate=1 / interlaced=0 / bluray_compat=0 / constrained_intra=0 / bframes=3 / b_pyramid=2 / b_adapt=1 / b_bias=0 / direct=1 / weightb=1 / open_gop=0 / weightp=2 / keyint=250 / keyint_min=25 / scenecut=40 / intra_refresh=0 / rc_lookahead=40 / rc=abr / mbtree=1 / bitrate=3000 / ratetol=1.0 / qcomp=0.60 / qpmin=0 / qpmax=69 / qpstep=4 / ip_ratio=1.40 / aq=1:1.00
    35. Codec configuration box        : avcC

    36. Audio
    37. ID                             : 2
    38. Format                         : AAC LC
    39. Format/Info                    : Advanced Audio Codec Low Complexity
    40. Codec ID                       : mp4a-40-2
    41. Duration                       : 47 min 21 s
    42. Bit rate mode                  : Constant
    43. Bit rate                       : 127 kb/s
    44. Channel(s)                     : 2 channels
    45. Channel layout                 : L R
    46. Sampling rate                  : 44.1 kHz
    47. Frame rate                     : 43.066 FPS (1024 SPF)
    48. Compression mode               : Lossy
    49. Stream size                    : 43.2 MiB (4%)
    50. Default                        : Yes
    51. Alternate group                : 1
    复制代码








    购买主题 已有 22 人购买  本主题需向作者支付 40 大洋 才能浏览
    回复

    使用道具 举报

  • TA的每日心情
    郁闷
    13 小时前
  • 签到天数: 127 天

    [LV.7]常住居民III

    7

    主题

    286

    帖子

    37

    积分

    初级影迷

    Rank: 2

    积分
    37
    发表于 2020-2-11 03:11:44 | 显示全部楼层
    神剧。支持了。
    回复

    使用道具 举报

  • TA的每日心情
    开心
    13 小时前
  • 签到天数: 88 天

    [LV.6]常住居民II

    6

    主题

    1181

    帖子

    149

    积分

    中级影迷

    Rank: 3Rank: 3

    积分
    149
    发表于 2020-2-11 04:17:01 | 显示全部楼层

    好资源 支持
    回复

    使用道具 举报

  • TA的每日心情
    开心
    4 小时前
  • 签到天数: 80 天

    [LV.6]常住居民II

    5

    主题

    383

    帖子

    36

    积分

    初级影迷

    Rank: 2

    积分
    36
    发表于 2020-2-11 10:19:33 | 显示全部楼层
    超喜欢的剧,高清版的,牛
    回复

    使用道具 举报

  • TA的每日心情
    难过
    13 小时前
  • 签到天数: 215 天

    [LV.7]常住居民III

    0

    主题

    503

    帖子

    47

    积分

    初级影迷

    Rank: 2

    积分
    47
    发表于 2020-2-11 11:41:21 | 显示全部楼层
    这个不错,感谢楼主!
    回复

    使用道具 举报

  • TA的每日心情

    昨天 14:05
  • 签到天数: 51 天

    [LV.5]常住居民I

    0

    主题

    115

    帖子

    11

    积分

    入门影迷

    Rank: 1

    积分
    11
    发表于 2020-2-11 11:53:58 | 显示全部楼层
    一代神剧  谢谢楼主
    回复

    使用道具 举报

  • TA的每日心情
    开心
    4 小时前
  • 签到天数: 208 天

    [LV.7]常住居民III

    80

    主题

    825

    帖子

    218

    积分

    高级影迷

    Rank: 4

    积分
    218
    发表于 2020-2-11 12:28:34 | 显示全部楼层
    感谢分享 必须收藏
    回复

    使用道具 举报

  • TA的每日心情
    开心
    2019-11-29 21:43
  • 签到天数: 2 天

    [LV.1]初来乍到

    0

    主题

    81

    帖子

    92

    积分

    中级影迷

    Rank: 3Rank: 3

    积分
    92
    发表于 2020-2-11 12:43:07 | 显示全部楼层
    又是一部神剧出现了,多谢分享
    回复

    使用道具 举报

  • TA的每日心情
    郁闷
    2020-3-19 12:09
  • 签到天数: 95 天

    [LV.6]常住居民II

    0

    主题

    1065

    帖子

    122

    积分

    中级影迷

    Rank: 3Rank: 3

    积分
    122
    发表于 2020-2-11 13:25:18 | 显示全部楼层
    谢谢楼主发布
    回复

    使用道具 举报

  • TA的每日心情
    开心
    昨天 14:00
  • 签到天数: 155 天

    [LV.7]常住居民III

    0

    主题

    321

    帖子

    41

    积分

    初级影迷

    Rank: 2

    积分
    41
    发表于 2020-2-11 14:59:31 | 显示全部楼层
    是蓝光的吗
    回复

    使用道具 举报

    您需要登录后才可以回帖 登录 | 立即注册

    本版积分规则

    QQ|Archiver|手机版|小黑屋|影迷乐园  

    GMT+8, 2020-3-30 14:08 , Processed in 0.157911 second(s), 34 queries .

    Powered by Discuz! X3.3

    © 2001-2017 Comsenz Inc.

    快速回复 返回顶部 返回列表