请选择 进入手机版 | 继续访问电脑版

YMLY-影迷乐园-特效字幕 蓝光原盘 1080P 高清动漫电影电视剧

 找回密码
 立即注册
搜索
查看: 66|回复: 4

[大陆] [百度][2013][1080P][大秦帝国之纵横][国语中字][宁静.富大龙][51集全][MKV][121.16GB][Qin.Empire.2.1080p.NF.WEB-DL.x264.AC3-ATTKC]

[复制链接]
  • TA的每日心情
    慵懒
    昨天 01:44
  • 签到天数: 232 天

    [LV.7]常住居民III

    348

    主题

    616

    帖子

    1667

    积分

    稀有影迷

    Rank: 12Rank: 12Rank: 12

    积分
    1667

    土豪勋章小土豪勋章主题达人百分百好孩子最佳新人影迷男神

    发表于 2020-2-14 11:35:23 | 显示全部楼层 |阅读模式



    ◎译  名 Qin Empire 2 / 大秦帝国2 / 大秦帝国2:纵横
    ◎片  名 大秦帝国之纵横
    ◎年  代 2013
    ◎产  地 中国大陆
    ◎类  别 剧情 / 历史 / 古装
    ◎语  言 汉语普通话
    ◎上映日期 2013-09-05(中国大陆)
    ◎豆瓣评分 9.1/10 from 22921 users
    ◎豆瓣链接 https://movie.douban.com/subject/4858790/
    ◎集  数 51
    ◎片  长 45分钟
    ◎导  演 丁黑 Ding Hei
    ◎编  剧 张建伟 Jianwei Zhang
    ◎主  演 宁静 Jing Ning
          富大龙 Dalong Fu
          傅淼 Miao Fu
          喻恩泰 Entai Yu
          杨新鸣 Xinming Yang
          李立群 Lichun Lee
          姚橹 Lu Yao
          杨志刚 Zhigang Yang
          赫子铭 Lanpeng He
          周波 Bo Zhou
          田小冰
          刘钊宏
          袁菲 Fei Yuan
          荆浩 Hao Jing
          张振华 Zhenhua Zhang
          孙霆
          蒋一铭 Yiming Jiang
          周征波 Zhengbo Zhou
          赵毅
          孙强
          高海成
          杨紫嫣 Ziyan Yang
          罗天佑
          战鹤文 Hewen Zhan
          丁嘉兰
          任正彬 Zheng-bin Ren
          王彩平 Caiping Wang
          张太龙
          彭志东
          孙飞虎 Feihu Sun
          贺云庆
          闫以昌
          刘辉
          张博 Bo Zhang
          王俊鹏
          王嘉浩
          雪菲
          闫沛
          王运生
          朱梓郡
          彭波 Bo Peng
          郑天庸 Tianyong Zheng
          张璇 Xuan Zhang
          魏华
          焦刚 Gang Jiao
          夏侯镔 Bin Xiahou
          成国栋 Guodong Cheng
          王大奇 Daqi Wang
          赵波
          马卫军 Weijun Ma
          刘畅
          廖东力
          王宁
          何勇生
          田小冰 Xiaobing Tian
          刘磊
          刘天佐 Tianzuo Liu
          黎明明 Mingming Li
          郭家铭 Jiaming Guo
          王笛 Di Wang
          陈昊 Hao Chen
          陈晓 Xiao Chen
          李保成 Baocheng Li
          朱军


    ◎标  签 大秦帝国 | 历史 | 历史剧 | 国产电视剧 | 大争之世 | 电视剧 | 战国 | 中国

    ◎简  介  

      东周列国,百年征伐,兼并挞伐,此消彼长。时至战国中期,七国并霸。曾经险遭灭国的秦国在商鞅变法之下迅速崛起,成为西北旷原最不可忽视的力量。在保守势力的逼迫下,年轻的秦惠文王嬴驷(富大龙 饰)被迫车裂商鞅,却也以消极的态度抑制保守一派。齐魏相王,雄心勃勃的秦惠文王在极其凶险的局势下登上国际舞台,同时铲除国内以甘龙为首的反对势力,为雄霸天下铺平了道路。国力衰退的魏惠王(李立群 饰)为遏制强邻的东进态势,任用苏秦的六国合纵之说以陷秦国于孤立。而秦国在不断蚕食周边之际,也启用张仪(喻恩泰 饰)提出连横的对策。豪杰贤士竞相登场,战国历史进入了最颠荡起伏的时代……
    本片根据孙皓晖的同名历史小说的第二部改编。

    ◎获奖情况  

      第30届中国电视剧飞天奖(2015)
      飞天奖 历史题材优秀电视剧大奖

      第27届中国电视金鹰奖(2014)
      优秀电视剧(提名)
      最佳摄影奖
    1. General
    2. Unique ID                      : 246493100604412646128914248318645724165 (0xB970D827939520FAA56C646973206405)
    3. Complete name                  : F:\TVB\01-ATTKC.mkv
    4. Format                         : Matroska
    5. Format version                 : Version 4 / Version 2
    6. File size                      : 2.40 GiB
    7. Duration                       : 45 min 1 s
    8. Overall bit rate mode          : Variable
    9. Overall bit rate               : 7 621 kb/s
    10. Encoded date                   : UTC 2018-02-01 10:02:13
    11. Writing application            : mkvmerge v16.0.0 ('Protest') 32-bit
    12. Writing library                : libebml v1.3.5 + libmatroska v1.4.8

    13. Video
    14. ID                             : 1
    15. Format                         : AVC
    16. Format/Info                    : Advanced Video Codec
    17. Format profile                 : Main@L4
    18. Format settings                : CABAC / 3 Ref Frames
    19. Format settings, CABAC         : Yes
    20. Format settings, ReFrames      : 3 frames
    21. Codec ID                       : V_MPEG4/ISO/AVC
    22. Duration                       : 45 min 0 s
    23. Bit rate mode                  : Variable
    24. Bit rate                       : 7 500 kb/s
    25. Maximum bit rate               : 11.2 Mb/s
    26. Width                          : 1 920 pixels
    27. Height                         : 1 080 pixels
    28. Display aspect ratio           : 16:9
    29. Frame rate mode                : Constant
    30. Frame rate                     : 25.000 FPS
    31. Color space                    : YUV
    32. Chroma subsampling             : 4:2:0
    33. Bit depth                      : 8 bits
    34. Scan type                      : Progressive
    35. Bits/(Pixel*Frame)             : 0.145
    36. Stream size                    : 2.36 GiB (98%)
    37. Writing library                : x264 core 118
    38. Encoding settings              : cabac=1 / ref=3 / deblock=1:0:0 / analyse=0x1:0x111 / me=umh / subme=10 / psy=1 / psy_rd=1.00:0.00 / mixed_ref=1 / me_range=24 / chroma_me=1 / trellis=2 / 8x8dct=0 / cqm=0 / deadzone=21,11 / fast_pskip=1 / chroma_qp_offset=-2 / threads=8 / sliced_threads=0 / nr=0 / decimate=1 / interlaced=0 / bluray_compat=0 / constrained_intra=0 / bframes=2 / b_pyramid=0 / b_adapt=2 / b_bias=0 / direct=3 / weightb=1 / open_gop=0 / weightp=2 / keyint=50 / keyint_min=26 / scenecut=0 / intra_refresh=0 / rc_lookahead=0 / rc=2pass / mbtree=1 / bitrate=7500 / ratetol=1.0 / qcomp=0.50 / qpmin=6 / qpmax=51 / qpstep=4 / cplxblur=20.0 / qblur=0.5 / vbv_maxrate=11250 / vbv_bufsize=15000 / nal_hrd=vbr / ip_ratio=1.40 / aq=1:1.00
    39. Default                        : Yes
    40. Forced                         : No

    41. Audio
    42. ID                             : 2
    43. Format                         : E-AC-3
    44. Format/Info                    : Enhanced Audio Coding 3
    45. Codec ID                       : A_EAC3
    46. Duration                       : 45 min 1 s
    47. Bit rate mode                  : Constant
    48. Bit rate                       : 128 kb/s
    49. Channel(s)                     : 2 channels
    50. Channel positions              : Front: L R
    51. Sampling rate                  : 48.0 kHz
    52. Frame rate                     : 187.500 FPS (256 SPF)
    53. Compression mode               : Lossy
    54. Stream size                    : 41.2 MiB (2%)
    55. Title                          : Mandarin
    56. Language                       : Chinese
    57. Service kind                   : Complete Main
    58. Default                        : No
    59. Forced                         : No

    60. Text #1
    61. ID                             : 3
    62. Format                         : UTF-8
    63. Codec ID                       : S_TEXT/UTF8
    64. Codec ID/Info                  : UTF-8 Plain Text
    65. Duration                       : 43 min 19 s
    66. Bit rate                       : 59 b/s
    67. Count of elements              : 471
    68. Stream size                    : 18.9 KiB (0%)
    69. Title                          : English [Full]
    70. Language                       : English
    71. Default                        : No
    72. Forced                         : No

    73. Text #2
    74. ID                             : 4
    75. Format                         : UTF-8
    76. Codec ID                       : S_TEXT/UTF8
    77. Codec ID/Info                  : UTF-8 Plain Text
    78. Duration                       : 43 min 19 s
    79. Bit rate                       : 95 b/s
    80. Count of elements              : 471
    81. Stream size                    : 30.4 KiB (0%)
    82. Title                          : Bulgarian [Full]
    83. Language                       : Bulgarian
    84. Default                        : No
    85. Forced                         : No

    86. Text #3
    87. ID                             : 5
    88. Format                         : UTF-8
    89. Codec ID                       : S_TEXT/UTF8
    90. Codec ID/Info                  : UTF-8 Plain Text
    91. Duration                       : 43 min 19 s
    92. Bit rate                       : 69 b/s
    93. Count of elements              : 469
    94. Stream size                    : 21.9 KiB (0%)
    95. Title                          : Vietnamese [Full]
    96. Language                       : Vietnamese
    97. Default                        : No
    98. Forced                         : No

    99. Text #4
    100. ID                             : 6
    101. Format                         : UTF-8
    102. Codec ID                       : S_TEXT/UTF8
    103. Codec ID/Info                  : UTF-8 Plain Text
    104. Duration                       : 43 min 19 s
    105. Bit rate                       : 138 b/s
    106. Count of elements              : 468
    107. Stream size                    : 44.0 KiB (0%)
    108. Title                          : Thai [Full]
    109. Language                       : Thai
    110. Default                        : No
    111. Forced                         : No

    112. Text #5
    113. ID                             : 7
    114. Format                         : UTF-8
    115. Codec ID                       : S_TEXT/UTF8
    116. Codec ID/Info                  : UTF-8 Plain Text
    117. Duration                       : 41 min 16 s
    118. Bit rate                       : 39 b/s
    119. Count of elements              : 558
    120. Stream size                    : 11.9 KiB (0%)
    121. Title                          : Chinese (Simplified) [Full]
    122. Language                       : Chinese
    123. Default                        : No
    124. Forced                         : No

    125. Text #6
    126. ID                             : 8
    127. Format                         : UTF-8
    128. Codec ID                       : S_TEXT/UTF8
    129. Codec ID/Info                  : UTF-8 Plain Text
    130. Duration                       : 41 min 16 s
    131. Bit rate                       : 40 b/s
    132. Count of elements              : 558
    133. Stream size                    : 12.1 KiB (0%)
    134. Title                          : Chinese (Traditional) [Full]
    135. Language                       : Chinese
    136. Default                        : No
    137. Forced                         : No

    复制代码








    购买主题 已有 2 人购买  本主题需向作者支付 30 大洋 才能浏览
    回复

    使用道具 举报

  • TA的每日心情
    奋斗
    昨天 08:45
  • 签到天数: 37 天

    [LV.5]常住居民I

    3

    主题

    157

    帖子

    82

    积分

    中级影迷

    Rank: 3Rank: 3

    积分
    82
    发表于 2020-2-14 12:17:21 | 显示全部楼层
    回复

    使用道具 举报

  • TA的每日心情
    开心
    7 天前
  • 签到天数: 3 天

    [LV.2]偶尔看看I

    12

    主题

    48

    帖子

    78

    积分

    中级影迷

    Rank: 3Rank: 3

    积分
    78
    发表于 2020-2-14 12:43:25 | 显示全部楼层
    真是好东西啊,谢谢楼主了
    回复

    使用道具 举报

  • TA的每日心情
    开心
    昨天 10:35
  • 签到天数: 182 天

    [LV.7]常住居民III

    10

    主题

    2030

    帖子

    676

    积分

    专业影迷

    Rank: 8Rank: 8

    积分
    676

    小土豪勋章土豪勋章

    发表于 2020-2-14 15:34:56 | 显示全部楼层
    感谢分享。
    1
    回复

    使用道具 举报

  • TA的每日心情
    慵懒
    前天 22:12
  • 签到天数: 4 天

    [LV.2]偶尔看看I

    0

    主题

    13

    帖子

    15

    积分

    入门影迷

    Rank: 1

    积分
    15
    发表于 2020-2-16 20:54:17 | 显示全部楼层
    真是好东西啊,谢谢楼主了
    回复

    使用道具 举报

    您需要登录后才可以回帖 登录 | 立即注册

    本版积分规则

    QQ|Archiver|手机版|小黑屋|影迷乐园  

    GMT+8, 2020-2-26 03:00 , Processed in 0.156723 second(s), 32 queries .

    Powered by Discuz! X3.3

    © 2001-2017 Comsenz Inc.

    快速回复 返回顶部 返回列表