请选择 进入手机版 | 继续访问电脑版

YMLY-影迷乐园-特效字幕 蓝光原盘 1080P 高清动漫电影电视剧

 找回密码
 立即注册
搜索
查看: 26886|回复: 45

[日本] [百度][2010][1080i][月之恋人][日语外挂繁体中字][木村拓哉.筱原凉子.林志玲][8集全][MKV][17.49GB]

[复制链接]
  • TA的每日心情
    慵懒
    2024-3-25 23:42
  • 签到天数: 1631 天

    [LV.Master]伴坛终老

    600

    主题

    2533

    帖子

    2万

    积分

    超级版主

    Rank: 16Rank: 16Rank: 16Rank: 16

    积分
    29142

    超版勋章版主勋章优秀版主土豪勋章小土豪勋章主题达人百分百好孩子最佳新人影迷男神富甲一方十二生肖之猴巨蟹座勋章知识勋章

    发表于 2020-3-8 13:47:33 | 显示全部楼层 |阅读模式




    ◎译  名 月之恋人 / Moon Lovers / Tsuki no koibito
    ◎片  名 月の恋人
    ◎年  代 2010
    ◎产  地 日本
    ◎类  别 剧情
    ◎语  言 日语
    ◎上映日期 2010-05-10(日本)
    ◎IMDb评分  5.7/10 from 108 users
    ◎IMDb链接  https://www.imdb.com/title/tt1611707
    ◎豆瓣评分 5.5/10 from 15981 users
    ◎豆瓣链接 https://movie.douban.com/subject/4300597/
    ◎集  数 8
    ◎片  长 54分钟
    ◎导  演 西谷弘 Hiroshi Nishitani / 平野真 Shin Hirano / 石井祐介 Yusuke Ishii
    ◎编  剧 浅野妙子 Taeko Asano
    ◎主  演 木村拓哉 Takuya Kimura
           筱原凉子 Ryôko Shinohara
           松田翔太 Shota Matsuda
           北川景子 Keiko Kitagawa
           林志玲 Chiling Lin




    ◎简  介  

      近年势头强劲的日本室内装潢品牌Regolith开始拓展其海外市场,选择了上海作为其海外第一家分店。因为它的入驻,导致了一家工厂倒闭,引起了包括刘秀美(林志玲 饰)等工人的强烈不满,进而引发大规模的静坐。前来考察的Regolith的老板叶月莲介(木村拓哉 饰)看到了这幕,性格好强凡事要做到底的莲介想尽办法要平息这场事件。于是,莲介委托其助理蔡风见(松田翔太 饰)调查秀美的背景,且要求秀美作为其品牌的代言模特。在莲介的改造下,秀美变得焕然一新,而秀美在在和莲介的接触中,也对其由厌恶到有好感。
      静坐事件被平息以后,秀美随莲介去了日本。而莲介这边,除了秀美,还有他多年的朋友,公司的设计师二宫真绘美(筱原凉子 饰)和其绯闻女友人气模特大贯柚月(北川景子 饰)两位女性对其怀有好感。三位女性该如何抉择,势头强劲不得人心的莲介又能否让公司正常运行,而与此同时,阴谋与背叛也在背后滋生……

    ◎获奖情况  

      第65届日剧学院赏(2010)
      最佳女配角(提名) 筱原凉子
    1. General
    2. Complete name                  : F:\TVB\【ドラマ】 月の恋人~Moon Lovers~ 第01話 「おまえが欲しい」 (1440x1080i x264-AAC).mp4
    3. Format                         : MPEG-4
    4. Format profile                 : Base Media
    5. Codec ID                       : isom (isom/avc1)
    6. File size                      : 3.25 GiB
    7. Duration                       : 57 min 59 s
    8. Overall bit rate mode          : Variable
    9. Overall bit rate               : 8 023 kb/s
    10. Encoded date                   : UTC 2012-04-23 22:09:23
    11. Tagged date                    : UTC 2012-04-23 22:09:23
    12. Comment                        : Encoded by くずおれる 

    13. Video
    14. ID                             : 1
    15. Format                         : AVC
    16. Format/Info                    : Advanced Video Codec
    17. Format profile                 : High@L4.1
    18. Format settings                : CABAC / 5 Ref Frames
    19. Format settings, CABAC         : Yes
    20. Format settings, ReFrames      : 5 frames
    21. Codec ID                       : avc1
    22. Codec ID/Info                  : Advanced Video Coding
    23. Duration                       : 57 min 59 s
    24. Bit rate                       : 7 830 kb/s
    25. Maximum bit rate               : 24.5 Mb/s
    26. Width                          : 1 440 pixels
    27. Height                         : 1 080 pixels
    28. Display aspect ratio           : 16:9
    29. Frame rate mode                : Constant
    30. Frame rate                     : 29.970 (30000/1001) FPS
    31. Color space                    : YUV
    32. Chroma subsampling             : 4:2:0
    33. Bit depth                      : 8 bits
    34. Scan type                      : MBAFF
    35. Scan type, store method        : Interleaved fields
    36. Scan order                     : Top Field First
    37. Bits/(Pixel*Frame)             : 0.168
    38. Stream size                    : 3.17 GiB (98%)
    39. Title                          : Imported with GPAC 0.4.6-DEV (internal rev. 5)
    40. Writing library                : x264 core 120 r2120 0c7dab9
    41. Encoding settings              : cabac=1 / ref=5 / deblock=1:-1:-1 / analyse=0x3:0x113 / me=umh / subme=9 / psy=1 / psy_rd=1.00:0.15 / mixed_ref=1 / me_range=32 / chroma_me=1 / trellis=2 / 8x8dct=1 / cqm=0 / deadzone=21,11 / fast_pskip=1 / chroma_qp_offset=-3 / threads=6 / sliced_threads=0 / nr=0 / decimate=1 / interlaced=tff / bluray_compat=0 / constrained_intra=0 / bframes=3 / b_pyramid=2 / b_adapt=2 / b_bias=0 / direct=3 / weightb=1 / open_gop=0 / weightp=0 / keyint=250 / keyint_min=25 / scenecut=40 / intra_refresh=0 / rc_lookahead=60 / rc=crf / mbtree=1 / crf=20.0 / qcomp=0.60 / qpmin=0 / qpmax=69 / qpstep=4 / ip_ratio=1.40 / aq=1:1.00
    42. Encoded date                   : UTC 2012-04-23 22:09:23
    43. Tagged date                    : UTC 2012-04-23 22:11:44

    44. Audio
    45. ID                             : 2
    46. Format                         : AAC
    47. Format/Info                    : Advanced Audio Codec
    48. Format profile                 : LC
    49. Codec ID                       : mp4a-67-2
    50. Duration                       : 57 min 59 s
    51. Bit rate mode                  : Variable
    52. Bit rate                       : 192 kb/s
    53. Maximum bit rate               : 196 kb/s
    54. Channel(s)                     : 2 channels
    55. Channel positions              : Front: L R
    56. Sampling rate                  : 48.0 kHz
    57. Frame rate                     : 46.875 FPS (1024 SPF)
    58. Compression mode               : Lossy
    59. Stream size                    : 78.2 MiB (2%)
    60. Title                          : Imported with GPAC 0.4.6-DEV (internal rev. 5)
    61. Language                       : Japanese
    62. Encoded date                   : UTC 2012-04-23 22:11:35
    63. Tagged date                    : UTC 2012-04-23 22:11:44

    复制代码






    购买主题 已有 35 人购买  本主题需向作者支付 20 大洋 才能浏览
    回复

    使用道具 举报

  • TA的每日心情
    开心
    2024-3-2 18:04
  • 签到天数: 1163 天

    [LV.10]以坛为家III

    4

    主题

    5076

    帖子

    400

    积分

    超级影迷

    Rank: 6Rank: 6

    积分
    400
    发表于 2020-3-8 14:37:17 | 显示全部楼层
    好资源 支持
    回复

    使用道具 举报

  • TA的每日心情
    开心
    2023-6-17 21:48
  • 签到天数: 2 天

    [LV.1]初来乍到

    0

    主题

    130

    帖子

    57

    积分

    初级影迷

    Rank: 2

    积分
    57
    QQ
    发表于 2020-3-16 22:03:08 | 显示全部楼层
    好资源 支持
    回复

    使用道具 举报

  • TA的每日心情
    无聊
    2022-11-11 00:55
  • 签到天数: 236 天

    [LV.7]常住居民III

    4

    主题

    479

    帖子

    35

    积分

    初级影迷

    Rank: 2

    积分
    35
    发表于 2020-5-6 05:47:25 | 显示全部楼层
    好资源 支持
    回复

    使用道具 举报

  • TA的每日心情
    开心
    3 小时前
  • 签到天数: 2446 天

    [LV.Master]伴坛终老

    282

    主题

    4095

    帖子

    718

    积分

    专业影迷

    Rank: 8Rank: 8

    积分
    718

    小土豪勋章

    发表于 2020-5-19 10:25:26 | 显示全部楼层
    林志玲国民女神,360度无死角,侧脸更显颜值,顶了~~~~
    回复

    使用道具 举报

  • TA的每日心情
    开心
    2022-7-29 15:34
  • 签到天数: 19 天

    [LV.4]偶尔看看III

    5

    主题

    92

    帖子

    71

    积分

    中级影迷

    Rank: 3Rank: 3

    积分
    71
    发表于 2020-7-10 10:25:32 | 显示全部楼层
    谢谢,木村大神的又一部作品。
    回复

    使用道具 举报

  • TA的每日心情
    慵懒
    2023-7-3 12:55
  • 签到天数: 347 天

    [LV.8]以坛为家I

    1

    主题

    430

    帖子

    146

    积分

    中级影迷

    Rank: 3Rank: 3

    积分
    146
    发表于 2020-7-22 21:46:38 | 显示全部楼层
    支持你分享的好资源
    回复

    使用道具 举报

  • TA的每日心情
    开心
    2023-10-15 20:27
  • 签到天数: 397 天

    [LV.9]以坛为家II

    0

    主题

    517

    帖子

    237

    积分

    高级影迷

    Rank: 4

    积分
    237
    发表于 2020-7-30 19:56:17 | 显示全部楼层
    木拓哥和滿島光,這必須要珍藏的!
    回复

    使用道具 举报

  • TA的每日心情
    擦汗
    2021-1-2 15:42
  • 签到天数: 1 天

    [LV.1]初来乍到

    0

    主题

    21

    帖子

    11

    积分

    入门影迷

    Rank: 1

    积分
    11
    发表于 2020-8-30 22:48:21 | 显示全部楼层
    先谢楼主辛苦了
    回复

    使用道具 举报

  • TA的每日心情
    开心
    昨天 00:55
  • 签到天数: 787 天

    [LV.10]以坛为家III

    0

    主题

    1007

    帖子

    142

    积分

    中级影迷

    Rank: 3Rank: 3

    积分
    142
    发表于 2020-10-1 02:39:23 | 显示全部楼层
    这个也不错
    回复

    使用道具 举报

    您需要登录后才可以回帖 登录 | 立即注册

    本版积分规则

    QQ|Archiver|手机版|小黑屋|影迷乐园

    GMT+8, 2024-6-21 18:36 , Processed in 0.108806 second(s), 29 queries .

    Powered by Discuz! X3.4

    Copyright © 2001-2020, Tencent Cloud.

    快速回复 返回顶部 返回列表