请选择 进入手机版 | 继续访问电脑版

YMLY-影迷乐园-特效字幕 蓝光原盘 1080P 高清动漫电影电视剧

 找回密码
 立即注册
搜索
查看: 912|回复: 11

[日本] [百度][1996][480P][钢铁神兵.第一季][1-25话全][台配.粵语.日语.无字][4.26GB][MKV][Bito.Ekkusu.DVDrip480P.X264.AAC.HALFCD]

[复制链接]
  • TA的每日心情
    无聊
    2019-4-24 08:53
  • 签到天数: 33 天

    [LV.5]常住居民I

    80

    主题

    128

    帖子

    722

    积分

    版主

    Rank: 8Rank: 8

    积分
    722

    贵族勋章水瓶座勋章

    发表于 2020-3-21 22:32:18 | 显示全部楼层 |阅读模式




    ◎译  名 钢铁神兵 / B'T X / B'T X鋼鐵神兵 / Bito Ekkusu
    ◎片  名 ビート・エックス
    ◎年  代 1996
    ◎产  地 日本
    ◎类  别 动画
    ◎语  言 日语
    ◎上映日期 1996-04-06(日本)
    ◎IMDb评分  7.3/10 from 95 users
    ◎IMDb链接  https://www.imdb.com/title/tt0331863
    ◎豆瓣评分 8.4/10 from 5877 users
    ◎豆瓣链接 https://movie.douban.com/subject/1465020/
    ◎集  数 25
    ◎片  长 23分钟
    ◎导  演 浜津守 Mamoru Hamatsu
    ◎编  剧 车田正美 Masami Kurumada
    ◎主  演 桧山修之 Nobuyuki Hiyama
           佐佐木望 Nozomu Sasaki
           绪方惠美 Megumi Ogata
           一条和矢 Kazuya Ichijô
           藤原启治 Keiji Fujiwara
           佐久田修 Sakuta Osamu
           堀内贤雄 Ken'yû Horiuchi
           汤屋敦子 Atsuko Yuya
           小杉十郎太 Jûrôta Kosugi
           二又一成 Issei Futamata
           堀川仁 Horikawa Jin
           筱原恵美
           百百麻子 Asako Dodo
           水野龙司 Mizuno Ryuuji
           高岛雅罗 Gara Takashima
           渡边美佐子 Misako Watanabe
           泽海阳子 Yôko Soumi
           藤木圣子


    ◎标  签 动画 | 车田正美 | 日本 | 日本动画 | 童年 | 钢铁神兵 | 童年回忆 | 动漫

    ◎简  介  

      近未来,人类科技空前进步。与此同时,邪恶也在世界范围内肆意蔓延。拥有优秀科学家团队和先进机械研发技术的机械皇帝妄图称霸世界。他建立起一个庞大的机器王国,下面的战士配有名为“B'T”高智能机器人。凭借于此,机械王国所向披靡,无往不利。在机械皇帝之下另有四个地位尊贵显赫的四灵将,四灵将之一华莲偶然得知机械皇帝的真面目,于是带着她的B'T逃脱,最终她隐居在神居岛,担任少年铁兵的教练。
      5年后,铁兵的兄长——天才机械科学家钢太郎在某国的机械博览会上遭到机械皇帝的绑架。铁兵为救兄长秘密潜入机械王国,偶然机会更使华莲早已报废的B'T复活,并将之命名为B'T X。这对搭档开始向着神秘、强大的机械王国进发。在这一过程中,机械皇帝的真面目也逐渐被揭开……
    1. General
    2. Format                         : Matroska
    3. Format version                 : Version 2
    4. File size                      : 172 MiB
    5. Duration                       : 20 min 16 s
    6. Overall bit rate               : 1 184 kb/s
    7. Encoded date                   : UTC 2012-06-06 15:26:06
    8. Writing application            : mkvmerge v4.2.0 ('No Talking') 编译于 Jul 28 2010 18:38:23
    9. Writing library                : libebml v1.0.0 + libmatroska v1.0.0

    10. Video
    11. ID                             : 1
    12. Format                         : AVC
    13. Format/Info                    : Advanced Video Codec
    14. Muxing mode                    : Header stripping
    15. Codec ID                       : V_MPEG4/ISO/AVC
    16. Duration                       : 20 min 16 s
    17. Width                          : 640 pixels
    18. Height                         : 480 pixels
    19. Display aspect ratio           : 4:3
    20. Frame rate mode                : Constant
    21. Frame rate                     : 25.000 FPS
    22. Default                        : Yes
    23. Forced                         : No

    24. Audio #1
    25. ID                             : 2
    26. Format                         : AAC LC
    27. Format/Info                    : Advanced Audio Codec Low Complexity
    28. Codec ID                       : A_AAC-2
    29. Duration                       : 20 min 16 s
    30. Channel(s)                     : 2 channels
    31. Channel layout                 : L R
    32. Sampling rate                  : 44.1 kHz
    33. Frame rate                     : 43.066 FPS (1024 SPF)
    34. Compression mode               : Lossy
    35. Title                          : 台配
    36. Language                       : Chinese
    37. Default                        : Yes
    38. Forced                         : No

    39. Audio #2
    40. ID                             : 3
    41. Format                         : MPEG Audio
    42. Format version                 : Version 1
    43. Format profile                 : Layer 3
    44. Format settings                : Joint stereo
    45. Muxing mode                    : Header stripping
    46. Codec ID                       : A_MPEG/L3
    47. Codec ID/Hint                  : MP3
    48. Duration                       : 20 min 15 s
    49. Bit rate mode                  : Constant
    50. Bit rate                       : 128 kb/s
    51. Channel(s)                     : 2 channels
    52. Sampling rate                  : 44.1 kHz
    53. Frame rate                     : 38.281 FPS (1152 SPF)
    54. Compression mode               : Lossy
    55. Stream size                    : 18.5 MiB (11%)
    56. Title                          : jpn
    57. Writing library                : LAME3.92
    58. Encoding settings              : -m j -V 4 -q 2 -lowpass 15.4 -b 128
    59. Language                       : Japanese
    60. Default                        : No
    61. Forced                         : No

    62. Audio #3
    63. ID                             : 4
    64. Format                         : MPEG Audio
    65. Format version                 : Version 1
    66. Format profile                 : Layer 3
    67. Format settings                : Joint stereo / MS Stereo
    68. Muxing mode                    : Header stripping
    69. Codec ID                       : A_MPEG/L3
    70. Codec ID/Hint                  : MP3
    71. Duration                       : 20 min 16 s
    72. Bit rate mode                  : Constant
    73. Bit rate                       : 128 kb/s
    74. Channel(s)                     : 2 channels
    75. Sampling rate                  : 44.1 kHz
    76. Compression mode               : Lossy
    77. Stream size                    : 18.6 MiB (11%)
    78. Title                          : tvb
    79. Writing library                : LAME3.98.2aaa
    80. Language                       : Chinese
    81. Default                        : No
    82. Forced                         : No
    复制代码





    购买主题 已有 5 人购买  本主题需向作者支付 20 大洋 才能浏览
    回复

    使用道具 举报

  • TA的每日心情
    开心
    昨天 20:01
  • 签到天数: 315 天

    [LV.8]以坛为家I

    5

    主题

    2361

    帖子

    262

    积分

    超级影迷

    Rank: 6Rank: 6

    积分
    262
    发表于 2020-3-22 00:31:13 | 显示全部楼层
    好资源 支持
    回复

    使用道具 举报

  • TA的每日心情
    开心
    2020-12-17 13:37
  • 签到天数: 236 天

    [LV.7]常住居民III

    10

    主题

    2510

    帖子

    898

    积分

    ★★VIP6★★

    Rank: 22Rank: 22Rank: 22Rank: 22Rank: 22Rank: 22

    积分
    898

    小土豪勋章土豪勋章影迷男神十二生肖之猴天秤座勋章

    发表于 2020-3-22 10:41:26 | 显示全部楼层
    感谢分享。
    1
    回复

    使用道具 举报

  • TA的每日心情
    开心
    2020-12-17 13:37
  • 签到天数: 236 天

    [LV.7]常住居民III

    10

    主题

    2510

    帖子

    898

    积分

    ★★VIP6★★

    Rank: 22Rank: 22Rank: 22Rank: 22Rank: 22Rank: 22

    积分
    898

    小土豪勋章土豪勋章影迷男神十二生肖之猴天秤座勋章

    发表于 2020-3-22 10:47:06 | 显示全部楼层
    感谢分享。
    1
    回复

    使用道具 举报

  • TA的每日心情
    郁闷
    8 小时前
  • 签到天数: 659 天

    [LV.9]以坛为家II

    39

    主题

    7501

    帖子

    1040

    积分

    资深影迷

    Rank: 10Rank: 10Rank: 10

    积分
    1040
    发表于 2020-3-23 11:09:23 | 显示全部楼层
    很不错!谢谢分享。
    回复

    使用道具 举报

  • TA的每日心情
    开心
    2020-4-8 16:34
  • 签到天数: 2 天

    [LV.1]初来乍到

    0

    主题

    8

    帖子

    22

    积分

    入门影迷

    Rank: 1

    积分
    22
    发表于 2020-4-8 16:56:01 | 显示全部楼层
    很经典  值得收藏  谢谢分享
    回复

    使用道具 举报

    该用户从未签到

    0

    主题

    7

    帖子

    14

    积分

    入门影迷

    Rank: 1

    积分
    14
    发表于 2020-6-15 02:16:21 | 显示全部楼层
    我记得特清楚,龙大人,凤大人
    回复

    使用道具 举报

  • TA的每日心情
    奋斗
    19 小时前
  • 签到天数: 335 天

    [LV.8]以坛为家I

    334

    主题

    1138

    帖子

    5755

    积分

    超级版主

    Rank: 16Rank: 16Rank: 16Rank: 16

    积分
    5755

    超版勋章版主勋章优秀版主富甲一方土豪勋章小土豪勋章精华勋章主题达人百分百好孩子音乐之星知识勋章最佳新人十二生肖之猴双鱼座勋章

    发表于 2020-6-18 00:41:04 | 显示全部楼层
    感谢分享!!!
    回复

    使用道具 举报

    该用户从未签到

    8

    主题

    159

    帖子

    68

    积分

    初级影迷

    Rank: 2

    积分
    68
    发表于 2020-7-15 18:51:16 | 显示全部楼层

    感谢分享!!!
    回复

    使用道具 举报

  • TA的每日心情

    前天 23:30
  • 签到天数: 338 天

    [LV.8]以坛为家I

    39

    主题

    2349

    帖子

    332

    积分

    超级影迷

    Rank: 6Rank: 6

    积分
    332
    发表于 2020-7-28 17:13:08 | 显示全部楼层
    支持下         
    回复

    使用道具 举报

    您需要登录后才可以回帖 登录 | 立即注册

    本版积分规则

    QQ|Archiver|手机版|小黑屋|影迷乐园

    GMT+8, 2021-2-27 19:49 , Processed in 0.060783 second(s), 27 queries .

    Powered by Discuz! X3.4

    Copyright © 2001-2020, Tencent Cloud.

    快速回复 返回顶部 返回列表