请选择 进入手机版 | 继续访问电脑版

YMLY-影迷乐园-特效字幕 蓝光原盘 1080P 高清动漫电影电视剧

 找回密码
 立即注册
搜索
查看: 223|回复: 5

[意大利] [百度][2019][1080P][零零零.S01][意语外挂中英字幕][8集全][MKV][18.26GB][ZeroZeroZero.S01.1080p.AMZN.WEB-DL.DDP5.1.H.264-NTG]

[复制链接]
  • TA的每日心情
    慵懒
    16 小时前
  • 签到天数: 331 天

    [LV.8]以坛为家I

    508

    主题

    959

    帖子

    3473

    积分

    超级版主

    Rank: 16Rank: 16Rank: 16Rank: 16

    积分
    3473

    超版勋章版主勋章优秀版主土豪勋章小土豪勋章主题达人百分百好孩子最佳新人影迷男神

    发表于 2020-3-22 23:56:48 | 显示全部楼层 |阅读模式
    字幕来源:Orange字幕组



    ◎译  名 零零零 第一季 / Zero, Zero, Zero
    ◎片  名 ZeroZeroZero Season 1
    ◎年  代 2019
    ◎产  地 意大利
    ◎类  别 剧情
    ◎语  言 英语 / 意大利语 / 西班牙语 / 法语 / 沃洛夫语
    ◎上映日期 2019-09-05(威尼斯电影节) / 2020-03-06(美国)
    ◎IMDb评分  8.2/10 from 2513 users
    ◎IMDb链接  https://www.imdb.com/title/tt8332438
    ◎豆瓣评分 8.9/10 from 428 users
    ◎豆瓣链接 https://movie.douban.com/subject/30160347/
    ◎集  数 8
    ◎片  长 48–66分钟
    ◎导  演 扬努斯·梅兹 Janus Metz / 巴勃罗·特拉佩罗 Pablo Trapero / 斯特法诺·索利马 Stefano Sollima
    ◎编  剧 莱昂纳多·法索利 Leonardo Fasoli / 毛里西奥·卡茨 Mauricio Katz / 罗伯特·萨维亚诺 Roberto Saviano
    ◎主  演 安德丽亚·瑞斯波罗格 Andrea Riseborough
           戴恩·德哈恩 Dane DeHaan
           加布里埃尔·伯恩 Gabriel Byrne
           迭戈·卡塔诺 Diego Cataño
           朱力安·塞奇威克 Julian Sedgwick
           娜比哈·阿卡瑞 Nabiha Akkari
           狄恩·巴斯科 Dion Basco
           露西·浮士德 Lucy Faust
           韦恩·佩雷 Wayne Pére
           戈登·德克海默 Gordon Dexheimer
           érick Israel Consuelo
           Giuseppe De Domenico
           Mauricio Méndez
           Harold Torres
           Jesús Lozano
           Armando Comonfort Santiago
           José Salof
           Claudia Pineda
           Antonino Paone
           Pablo Abitia


    ◎标  签 犯罪 | 黑帮 | 意大利 | 毒品 | 美剧 | 剧情 | 美国 | 2020

    ◎简  介  

      安德丽亚·瑞斯波罗格(《黑镜》《斯大林之死》)有望加盟两个新项目:尼古拉斯·佩谢执导的新翻拍版《咒怨》,和亚马逊&天空电视台打造的限定剧《零零零》(Zero, Zero, Zero)。
      《零零零》由斯特法诺·索利马(《格莫拉》《边境杀手2》)执导,根据Roberto S aviano所著同名书籍改编,设定在国际化可卡因交易的世界里。瑞斯波罗格商谈出演Emma Landry,一位直截了当业务经理,管理家族金融帝国。
    1. General
    2. Unique ID                      : 59566861102797739353348443606706392102 (0x2CD028FF88195A0571FAB1409FC18C26)
    3. Complete name                  : E:\影视\ZeroZeroZero.S01.1080p.AMZN.WEBRip.DDP5.1.x264-NTG\ZeroZeroZero.S01E01.The.Shipment.1080p.AMZN.WEB-DL.DDP5.1.H.264-NTG.mkv
    4. Format                         : Matroska
    5. Format version                 : Version 4 / Version 2
    6. File size                      : 2.46 GiB
    7. Duration                       : 57 min 26 s
    8. Overall bit rate               : 6 119 kb/s
    9. Encoded date                   : UTC 2020-03-06 09:57:40
    10. Writing application            : mkvmerge v21.0.0 ('Tardigrades Will Inherit The Earth') 64-bit
    11. Writing library                : libebml v1.3.5 + libmatroska v1.4.8

    12. Video
    13. ID                             : 1
    14. Format                         : AVC
    15. Format/Info                    : Advanced Video Codec
    16. Format profile                 : High@L4
    17. Format settings                : CABAC / 4 Ref Frames
    18. Format settings, CABAC         : Yes
    19. Format settings, ReFrames      : 4 frames
    20. Codec ID                       : V_MPEG4/ISO/AVC
    21. Duration                       : 57 min 26 s
    22. Bit rate mode                  : Constant
    23. Bit rate                       : 5 477 kb/s
    24. Nominal bit rate               : 10 000 kb/s
    25. Width                          : 1 920 pixels
    26. Height                         : 1 080 pixels
    27. Display aspect ratio           : 16:9
    28. Frame rate mode                : Constant
    29. Frame rate                     : 25.000 FPS
    30. Color space                    : YUV
    31. Chroma subsampling             : 4:2:0
    32. Bit depth                      : 8 bits
    33. Scan type                      : Progressive
    34. Bits/(Pixel*Frame)             : 0.106
    35. Stream size                    : 2.20 GiB (90%)
    36. Default                        : Yes
    37. Forced                         : No
    38. Color range                    : Limited
    39. Color primaries                : BT.709
    40. Transfer characteristics       : BT.709
    41. Matrix coefficients            : BT.709

    42. Audio
    43. ID                             : 2
    44. Format                         : E-AC-3
    45. Format/Info                    : Enhanced Audio Coding 3
    46. Codec ID                       : A_EAC3
    47. Duration                       : 57 min 26 s
    48. Bit rate mode                  : Constant
    49. Bit rate                       : 640 kb/s
    50. Channel(s)                     : 6 channels
    51. Channel positions              : Front: L C R, Side: L R, LFE
    52. Sampling rate                  : 48.0 kHz
    53. Frame rate                     : 187.500 FPS (256 SPF)
    54. Compression mode               : Lossy
    55. Stream size                    : 263 MiB (10%)
    56. Language                       : English
    57. Service kind                   : Complete Main
    58. Default                        : Yes
    59. Forced                         : No

    60. Text #1
    61. ID                             : 3
    62. Format                         : UTF-8
    63. Codec ID                       : S_TEXT/UTF8
    64. Codec ID/Info                  : UTF-8 Plain Text
    65. Duration                       : 51 min 53 s
    66. Bit rate                       : 17 b/s
    67. Count of elements              : 238
    68. Stream size                    : 6.61 KiB (0%)
    69. Title                          : Forced
    70. Language                       : English
    71. Default                        : Yes
    72. Forced                         : Yes

    73. Text #2
    74. ID                             : 4
    75. Format                         : UTF-8
    76. Codec ID                       : S_TEXT/UTF8
    77. Codec ID/Info                  : UTF-8 Plain Text
    78. Duration                       : 55 min 22 s
    79. Bit rate                       : 37 b/s
    80. Count of elements              : 473
    81. Stream size                    : 15.2 KiB (0%)
    82. Language                       : English
    83. Default                        : No
    84. Forced                         : No

    85. Text #3
    86. ID                             : 5
    87. Format                         : UTF-8
    88. Codec ID                       : S_TEXT/UTF8
    89. Codec ID/Info                  : UTF-8 Plain Text
    90. Duration                       : 55 min 22 s
    91. Bit rate                       : 37 b/s
    92. Count of elements              : 473
    93. Stream size                    : 15.2 KiB (0%)
    94. Title                          : SDH
    95. Language                       : English
    96. Default                        : No
    97. Forced                         : No

    98. Text #4
    99. ID                             : 6
    100. Format                         : UTF-8
    101. Codec ID                       : S_TEXT/UTF8
    102. Codec ID/Info                  : UTF-8 Plain Text
    103. Duration                       : 57 min 1 s
    104. Bit rate                       : 23 b/s
    105. Count of elements              : 359
    106. Stream size                    : 9.86 KiB (0%)
    107. Title                          : Latinoamérica
    108. Language                       : Spanish
    109. Default                        : No
    110. Forced                         : No

    111. Text #5
    112. ID                             : 7
    113. Format                         : UTF-8
    114. Codec ID                       : S_TEXT/UTF8
    115. Codec ID/Info                  : UTF-8 Plain Text
    116. Duration                       : 57 min 1 s
    117. Bit rate                       : 22 b/s
    118. Count of elements              : 357
    119. Stream size                    : 9.53 KiB (0%)
    120. Title                          : España
    121. Language                       : Spanish
    122. Default                        : No
    123. Forced                         : No

    124. Text #6
    125. ID                             : 8
    126. Format                         : UTF-8
    127. Codec ID                       : S_TEXT/UTF8
    128. Codec ID/Info                  : UTF-8 Plain Text
    129. Duration                       : 57 min 1 s
    130. Bit rate                       : 34 b/s
    131. Count of elements              : 506
    132. Stream size                    : 14.4 KiB (0%)
    133. Language                       : French
    134. Default                        : No
    135. Forced                         : No

    136. Text #7
    137. ID                             : 9
    138. Format                         : UTF-8
    139. Codec ID                       : S_TEXT/UTF8
    140. Codec ID/Info                  : UTF-8 Plain Text
    141. Duration                       : 57 min 1 s
    142. Bit rate                       : 33 b/s
    143. Count of elements              : 506
    144. Stream size                    : 13.9 KiB (0%)
    145. Language                       : Portuguese
    146. Default                        : No
    147. Forced                         : No

    148. Menu
    149. 00:00:00.000                   : en:Amazon Original
    150. 00:00:05.000                   : en:Story about Powder
    151. 00:03:36.000                   : en:The buyers
    152. 00:08:36.000                   : en:Stefano prepares for his action
    153. 00:12:19.000                   : en:Stefano tells what he thinks
    154. 00:17:56.000                   : en:Opening Credits
    155. 00:19:48.000                   : en:The Sellers
    156. 00:22:40.000                   : en:Interception
    157. 00:25:04.000                   : en:Gun fire in the town
    158. 00:27:40.000                   : en:Torture the guy
    159. 00:31:25.000                   : en:The Meeting
    160. 00:35:33.000                   : en:Unexpected fire
    161. 00:37:50.000                   : en:New Orleans, USA
    162. 00:40:49.000                   : en:Chris is with Edward at racecourse
    163. 00:43:04.000                   : en:Chris wonders about family business
    164. 00:46:43.000                   : en:Emma argues with Edward
    165. 00:48:47.000                   : en:Emma tries to fix it
    166. 00:51:05.000                   : en:Monterrey, Mexico
    167. 00:55:56.000                   : en:End Credits

    复制代码



    购买主题 已有 3 人购买  本主题需向作者支付 20 大洋 才能浏览
    回复

    使用道具 举报

  • TA的每日心情

    2020-5-22 16:02
  • 签到天数: 34 天

    [LV.5]常住居民I

    0

    主题

    122

    帖子

    8

    积分

    入门影迷

    Rank: 1

    积分
    8
    发表于 2020-3-23 11:47:59 | 显示全部楼层
    非常感谢发布
    回复

    使用道具 举报

  • TA的每日心情
    开心
    2020-5-22 00:14
  • 签到天数: 137 天

    [LV.7]常住居民III

    8

    主题

    1819

    帖子

    149

    积分

    中级影迷

    Rank: 3Rank: 3

    积分
    149
    发表于 2020-3-23 15:05:49 | 显示全部楼层
    好资源 支持
    回复

    使用道具 举报

  • TA的每日心情
    开心
    8 小时前
  • 签到天数: 88 天

    [LV.6]常住居民II

    1

    主题

    139

    帖子

    72

    积分

    中级影迷

    Rank: 3Rank: 3

    积分
    72
    发表于 2020-3-23 15:15:59 | 显示全部楼层
    谢谢分享,这个剧非常好看,值得推荐
    回复

    使用道具 举报

  • TA的每日心情
    无聊
    15 小时前
  • 签到天数: 74 天

    [LV.6]常住居民II

    1

    主题

    184

    帖子

    13

    积分

    入门影迷

    Rank: 1

    积分
    13
    发表于 2020-5-8 00:44:02 | 显示全部楼层
    非常感谢发布
    回复

    使用道具 举报

  • TA的每日心情
    无聊
    15 小时前
  • 签到天数: 74 天

    [LV.6]常住居民II

    1

    主题

    184

    帖子

    13

    积分

    入门影迷

    Rank: 1

    积分
    13
    发表于 2020-5-18 22:44:04 | 显示全部楼层

    非常感谢发布
    回复

    使用道具 举报

    您需要登录后才可以回帖 登录 | 立即注册

    本版积分规则

    QQ|Archiver|手机版|小黑屋|影迷乐园  

    GMT+8, 2020-6-5 16:49 , Processed in 0.150140 second(s), 32 queries .

    Powered by Discuz! X3.3

    © 2001-2017 Comsenz Inc.

    快速回复 返回顶部 返回列表