请选择 进入手机版 | 继续访问电脑版

YMLY-影迷乐园-特效字幕 蓝光原盘 1080P 高清动漫电影电视剧

 找回密码
 立即注册
搜索
查看: 33|回复: 2

[美国] [百度][2019][1080P][失联.S02][内封官方简繁中字&多国软字幕][10集全][MKV][22.33GB][Absentia.S02.1080p.AMZN.WEB-DL.DDP5.1.H.264-NTb]

[复制链接]
  • TA的每日心情

    昨天 20:01
  • 签到天数: 14 天

    [LV.3]偶尔看看II

    47

    主题

    69

    帖子

    221

    积分

    高级影迷

    Rank: 4

    积分
    221

    小土豪勋章

    发表于 2020-3-23 10:36:14 | 显示全部楼层 |阅读模式

    若链结失效 可站内信给我 收到信息会立即处理


    ◎译  名 失联 第二季
    ◎片  名 Absentia Season 2
    ◎年  代 2019
    ◎产  地 美国
    ◎类  别 剧情 / 悬疑 / 惊悚 / 犯罪
    ◎语  言 英语
    ◎上映日期 2019-03-27(美国)
    ◎IMDb评分  7.6/10 from 273 users
    ◎IMDb链接  https://www.imdb.com/title/tt8991418
    ◎豆瓣评分 7.7/10 from 89 users
    ◎豆瓣链接 https://movie.douban.com/subject/33391719/
    ◎集  数 10
    ◎片  长 40分钟
    ◎导  演 Oded Ruskin
    ◎编  剧 Deron M. Browne / Logan Slakter
    ◎主  演 斯坦娜·卡蒂克 Stana Katic
           帕特里克·赫辛格 Patrick Heusinger
           尼尔·杰克逊 Neil Jackson
           帕特里克·麦考利 Patrick McAuley
           卡拉·西奥博尔德 Cara Theobold
           安吉尔·伯纳尼 Angel Bonanni
           科林·斯廷顿 Colin Stinton
           Luke Carroll
           阿伦·艾克鹏 Alan Ayckbourn
           哈娜可福特曼 Hanako Footman
           安东·波利亚佐夫 Anton Poriazov


    ◎标  签 美剧 | 犯罪 | 悬疑 | 美国 | 特工 | 2019 | 惊悚 | 女强人

    ◎简  介  

      Stana Katic基本确定主演索尼制片公司的新剧《Absentia》,Stana这次将扮演一位FBI探员,在追捕波士顿最臭名昭著的连环杀手时失踪,被宣告死亡,六年后,她在一个森林中醒来,完全不记得这六年间发生的事。她回归后,发现丈夫已经再婚,孩子现在由别的女人抚养,很快,她发现自己又卷入了一系列别的案件中...By:https://www.zhuijukan.com/meiju/shiliandierji/






    1. General
    2. Unique ID                                : 186259262063679343641304846032548535319 (0x8C203AA13CD53066B729978C02021C17)
    3. Complete name                            : Absentia.S02E01.Casualties.1080p.AMZN.WEB-DL.DDP5.1.H.264-NTb.mkv
    4. Format                                   : Matroska
    5. Format version                           : Version 4
    6. File size                                : 2.04 GiB
    7. Duration                                 : 43 min 26 s
    8. Overall bit rate                         : 6 736 kb/s
    9. Encoded date                             : UTC 2019-06-14 01:08:30
    10. Writing application                      : mkvmerge v34.0.0 ('Sight and Seen') 64-bit
    11. Writing library                          : libebml v1.3.7 + libmatroska v1.5.0

    12. Video
    13. ID                                       : 1
    14. Format                                   : AVC
    15. Format/Info                              : Advanced Video Codec
    16. Format profile                           : High@L4
    17. Format settings                          : CABAC / 4 Ref Frames
    18. Format settings, CABAC                   : Yes
    19. Format settings, Reference frames        : 4 frames
    20. Codec ID                                 : V_MPEG4/ISO/AVC
    21. Duration                                 : 43 min 26 s
    22. Bit rate mode                            : Constant
    23. Bit rate                                 : 6 091 kb/s
    24. Nominal bit rate                         : 10 000 kb/s
    25. Width                                    : 1 920 pixels
    26. Height                                   : 1 080 pixels
    27. Display aspect ratio                     : 16:9
    28. Frame rate mode                          : Constant
    29. Frame rate                               : 23.976 (24000/1001) FPS
    30. Color space                              : YUV
    31. Chroma subsampling                       : 4:2:0
    32. Bit depth                                : 8 bits
    33. Scan type                                : Progressive
    34. Bits/(Pixel*Frame)                       : 0.123
    35. Stream size                              : 1.85 GiB (90%)
    36. Default                                  : Yes
    37. Forced                                   : No
    38. Color range                              : Limited
    39. Color primaries                          : BT.709
    40. Transfer characteristics                 : BT.709
    41. Matrix coefficients                      : BT.709

    42. Audio
    43. ID                                       : 2
    44. Format                                   : E-AC-3
    45. Format/Info                              : Enhanced AC-3
    46. Commercial name                          : Dolby Digital Plus
    47. Codec ID                                 : A_EAC3
    48. Duration                                 : 43 min 26 s
    49. Bit rate mode                            : Constant
    50. Bit rate                                 : 640 kb/s
    51. Channel(s)                               : 6 channels
    52. Channel layout                           : L R C LFE Ls Rs
    53. Sampling rate                            : 48.0 kHz
    54. Frame rate                               : 31.250 FPS (1536 SPF)
    55. Compression mode                         : Lossy
    56. Stream size                              : 199 MiB (10%)
    57. Language                                 : English
    58. Service kind                             : Complete Main
    59. Default                                  : Yes
    60. Forced                                   : No

    61. Text #1
    62. ID                                       : 3
    63. Format                                   : UTF-8
    64. Codec ID                                 : S_TEXT/UTF8
    65. Codec ID/Info                            : UTF-8 Plain Text
    66. Duration                                 : 42 min 11 s
    67. Bit rate                                 : 51 b/s
    68. Count of elements                        : 545
    69. Stream size                              : 15.8 KiB (0%)
    70. Title                                    : SDH
    71. Language                                 : English
    72. Default                                  : No
    73. Forced                                   : No

    74. Text #2
    75. ID                                       : 4
    76. Format                                   : UTF-8
    77. Codec ID                                 : S_TEXT/UTF8
    78. Codec ID/Info                            : UTF-8 Plain Text
    79. Duration                                 : 42 min 41 s
    80. Bit rate                                 : 78 b/s
    81. Count of elements                        : 475
    82. Stream size                              : 24.6 KiB (0%)
    83. Language                                 : Arabic
    84. Default                                  : No
    85. Forced                                   : No

    86. Text #3
    87. ID                                       : 5
    88. Format                                   : UTF-8
    89. Codec ID                                 : S_TEXT/UTF8
    90. Codec ID/Info                            : UTF-8 Plain Text
    91. Duration                                 : 42 min 41 s
    92. Bit rate                                 : 39 b/s
    93. Count of elements                        : 475
    94. Stream size                              : 12.3 KiB (0%)
    95. Title                                    : 中文(简体)
    96. Language                                 : Chinese
    97. Default                                  : No
    98. Forced                                   : No

    99. Text #4
    100. ID                                       : 6
    101. Format                                   : UTF-8
    102. Codec ID                                 : S_TEXT/UTF8
    103. Codec ID/Info                            : UTF-8 Plain Text
    104. Duration                                 : 42 min 41 s
    105. Bit rate                                 : 40 b/s
    106. Count of elements                        : 477
    107. Stream size                              : 12.7 KiB (0%)
    108. Title                                    : 中文(繁體)
    109. Language                                 : Chinese
    110. Default                                  : No
    111. Forced                                   : No

    112. Text #5
    113. ID                                       : 7
    114. Format                                   : UTF-8
    115. Codec ID                                 : S_TEXT/UTF8
    116. Codec ID/Info                            : UTF-8 Plain Text
    117. Duration                                 : 42 min 41 s
    118. Bit rate                                 : 45 b/s
    119. Count of elements                        : 467
    120. Stream size                              : 14.2 KiB (0%)
    121. Language                                 : Danish
    122. Default                                  : No
    123. Forced                                   : No

    124. Text #6
    125. ID                                       : 8
    126. Format                                   : UTF-8
    127. Codec ID                                 : S_TEXT/UTF8
    128. Codec ID/Info                            : UTF-8 Plain Text
    129. Duration                                 : 42 min 41 s
    130. Bit rate                                 : 48 b/s
    131. Count of elements                        : 462
    132. Stream size                              : 15.1 KiB (0%)
    133. Language                                 : German
    134. Default                                  : No
    135. Forced                                   : No

    136. Text #7
    137. ID                                       : 9
    138. Format                                   : UTF-8
    139. Codec ID                                 : S_TEXT/UTF8
    140. Codec ID/Info                            : UTF-8 Plain Text
    141. Duration                                 : 42 min 41 s
    142. Bit rate                                 : 48 b/s
    143. Count of elements                        : 476
    144. Stream size                              : 15.3 KiB (0%)
    145. Title                                    : Latinoamérica
    146. Language                                 : Spanish
    147. Default                                  : No
    148. Forced                                   : No

    149. Text #8
    150. ID                                       : 10
    151. Format                                   : UTF-8
    152. Codec ID                                 : S_TEXT/UTF8
    153. Codec ID/Info                            : UTF-8 Plain Text
    154. Duration                                 : 42 min 41 s
    155. Bit rate                                 : 42 b/s
    156. Count of elements                        : 402
    157. Stream size                              : 13.4 KiB (0%)
    158. Title                                    : España
    159. Language                                 : Spanish
    160. Default                                  : No
    161. Forced                                   : No

    162. Text #9
    163. ID                                       : 11
    164. Format                                   : UTF-8
    165. Codec ID                                 : S_TEXT/UTF8
    166. Codec ID/Info                            : UTF-8 Plain Text
    167. Duration                                 : 42 min 41 s
    168. Bit rate                                 : 41 b/s
    169. Count of elements                        : 457
    170. Stream size                              : 13.0 KiB (0%)
    171. Language                                 : Finnish
    172. Default                                  : No
    173. Forced                                   : No

    174. Text #10
    175. ID                                       : 12
    176. Format                                   : UTF-8
    177. Codec ID                                 : S_TEXT/UTF8
    178. Codec ID/Info                            : UTF-8 Plain Text
    179. Duration                                 : 41 min 32 s
    180. Bit rate                                 : 43 b/s
    181. Count of elements                        : 446
    182. Stream size                              : 13.2 KiB (0%)
    183. Language                                 : French
    184. Default                                  : No
    185. Forced                                   : No

    186. Text #11
    187. ID                                       : 13
    188. Format                                   : UTF-8
    189. Codec ID                                 : S_TEXT/UTF8
    190. Codec ID/Info                            : UTF-8 Plain Text
    191. Duration                                 : 42 min 41 s
    192. Bit rate                                 : 70 b/s
    193. Count of elements                        : 475
    194. Stream size                              : 21.9 KiB (0%)
    195. Language                                 : Hebrew
    196. Default                                  : No
    197. Forced                                   : No

    198. Text #12
    199. ID                                       : 14
    200. Format                                   : UTF-8
    201. Codec ID                                 : S_TEXT/UTF8
    202. Codec ID/Info                            : UTF-8 Plain Text
    203. Duration                                 : 42 min 41 s
    204. Bit rate                                 : 115 b/s
    205. Count of elements                        : 476
    206. Stream size                              : 36.0 KiB (0%)
    207. Language                                 : Hindi
    208. Default                                  : No
    209. Forced                                   : No

    210. Text #13
    211. ID                                       : 15
    212. Format                                   : UTF-8
    213. Codec ID                                 : S_TEXT/UTF8
    214. Codec ID/Info                            : UTF-8 Plain Text
    215. Duration                                 : 42 min 41 s
    216. Bit rate                                 : 45 b/s
    217. Count of elements                        : 477
    218. Stream size                              : 14.2 KiB (0%)
    219. Language                                 : Indonesian
    220. Default                                  : No
    221. Forced                                   : No

    222. Text #14
    223. ID                                       : 16
    224. Format                                   : UTF-8
    225. Codec ID                                 : S_TEXT/UTF8
    226. Codec ID/Info                            : UTF-8 Plain Text
    227. Duration                                 : 42 min 41 s
    228. Bit rate                                 : 43 b/s
    229. Count of elements                        : 467
    230. Stream size                              : 13.6 KiB (0%)
    231. Language                                 : Italian
    232. Default                                  : No
    233. Forced                                   : No

    234. Text #15
    235. ID                                       : 17
    236. Format                                   : UTF-8
    237. Codec ID                                 : S_TEXT/UTF8
    238. Codec ID/Info                            : UTF-8 Plain Text
    239. Duration                                 : 42 min 41 s
    240. Bit rate                                 : 47 b/s
    241. Count of elements                        : 476
    242. Stream size                              : 14.8 KiB (0%)
    243. Language                                 : Korean
    244. Default                                  : No
    245. Forced                                   : No

    246. Text #16
    247. ID                                       : 18
    248. Format                                   : UTF-8
    249. Codec ID                                 : S_TEXT/UTF8
    250. Codec ID/Info                            : UTF-8 Plain Text
    251. Duration                                 : 42 min 41 s
    252. Bit rate                                 : 46 b/s
    253. Count of elements                        : 474
    254. Stream size                              : 14.5 KiB (0%)
    255. Language                                 : Norwegian Bokmal
    256. Default                                  : No
    257. Forced                                   : No

    258. Text #17
    259. ID                                       : 19
    260. Format                                   : UTF-8
    261. Codec ID                                 : S_TEXT/UTF8
    262. Codec ID/Info                            : UTF-8 Plain Text
    263. Duration                                 : 42 min 8 s
    264. Bit rate                                 : 44 b/s
    265. Count of elements                        : 463
    266. Stream size                              : 13.9 KiB (0%)
    267. Language                                 : Dutch
    268. Default                                  : No
    269. Forced                                   : No

    270. Text #18
    271. ID                                       : 20
    272. Format                                   : UTF-8
    273. Codec ID                                 : S_TEXT/UTF8
    274. Codec ID/Info                            : UTF-8 Plain Text
    275. Duration                                 : 42 min 8 s
    276. Bit rate                                 : 40 b/s
    277. Count of elements                        : 457
    278. Stream size                              : 12.5 KiB (0%)
    279. Language                                 : Polish
    280. Default                                  : No
    281. Forced                                   : No

    282. Text #19
    283. ID                                       : 21
    284. Format                                   : UTF-8
    285. Codec ID                                 : S_TEXT/UTF8
    286. Codec ID/Info                            : UTF-8 Plain Text
    287. Duration                                 : 42 min 41 s
    288. Bit rate                                 : 46 b/s
    289. Count of elements                        : 476
    290. Stream size                              : 14.7 KiB (0%)
    291. Language                                 : Portuguese
    292. Default                                  : No
    293. Forced                                   : No

    294. Text #20
    295. ID                                       : 22
    296. Format                                   : UTF-8
    297. Codec ID                                 : S_TEXT/UTF8
    298. Codec ID/Info                            : UTF-8 Plain Text
    299. Duration                                 : 42 min 8 s
    300. Bit rate                                 : 75 b/s
    301. Count of elements                        : 472
    302. Stream size                              : 23.2 KiB (0%)
    303. Language                                 : Russian
    304. Default                                  : No
    305. Forced                                   : No

    306. Text #21
    307. ID                                       : 23
    308. Format                                   : UTF-8
    309. Codec ID                                 : S_TEXT/UTF8
    310. Codec ID/Info                            : UTF-8 Plain Text
    311. Duration                                 : 42 min 41 s
    312. Bit rate                                 : 45 b/s
    313. Count of elements                        : 468
    314. Stream size                              : 14.2 KiB (0%)
    315. Language                                 : Swedish
    316. Default                                  : No
    317. Forced                                   : No

    318. Text #22
    319. ID                                       : 24
    320. Format                                   : UTF-8
    321. Codec ID                                 : S_TEXT/UTF8
    322. Codec ID/Info                            : UTF-8 Plain Text
    323. Duration                                 : 42 min 41 s
    324. Bit rate                                 : 145 b/s
    325. Count of elements                        : 475
    326. Stream size                              : 45.4 KiB (0%)
    327. Language                                 : Tamil
    328. Default                                  : No
    329. Forced                                   : No

    330. Text #23
    331. ID                                       : 25
    332. Format                                   : UTF-8
    333. Codec ID                                 : S_TEXT/UTF8
    334. Codec ID/Info                            : UTF-8 Plain Text
    335. Duration                                 : 42 min 41 s
    336. Bit rate                                 : 122 b/s
    337. Count of elements                        : 470
    338. Stream size                              : 38.2 KiB (0%)
    339. Language                                 : Telugu
    340. Default                                  : No
    341. Forced                                   : No

    342. Text #24
    343. ID                                       : 26
    344. Format                                   : UTF-8
    345. Codec ID                                 : S_TEXT/UTF8
    346. Codec ID/Info                            : UTF-8 Plain Text
    347. Duration                                 : 42 min 41 s
    348. Bit rate                                 : 48 b/s
    349. Count of elements                        : 475
    350. Stream size                              : 15.1 KiB (0%)
    351. Language                                 : Turkish
    352. Default                                  : No
    353. Forced                                   : No

    354. Menu
    355. 00:00:00.000                             : en:Amazon Original
    356. 00:00:05.000                             : en:Emily goes looking for a date
    357. 00:05:53.000                             : en:Title Sequence
    358. 00:06:06.000                             : en:An unexpected wake up call
    359. 00:07:02.000                             : en:Therapy session
    360. 00:08:34.000                             : en:Emily adjusts to her new life
    361. 00:11:43.000                             : en:A meeting with Tommy
    362. 00:15:37.000                             : en:Chasing down a lead
    363. 00:17:11.000                             : en:An attack on a federal building
    364. 00:19:03.000                             : en:Hysteria sweeps the city
    365. 00:24:24.000                             : en:Emily starts to panic
    366. 00:27:20.000                             : en:A profiler shows up to help
    367. 00:29:12.000                             : en:Alice ends up back at the hospital
    368. 00:30:17.000                             : en:Anxiety gets the best of everyone
    369. 00:34:32.000                             : en:A peace offering
    370. 00:39:18.000                             : en:Trying to get ahead of the next attack
    371. 00:41:10.000                             : en:Questioning a suspect
    372. 00:42:27.000                             : en:End Credits
    复制代码



    购买主题 本主题需向作者支付 20 大洋 才能浏览
    回复

    使用道具 举报

  • TA的每日心情

    昨天 16:54
  • 签到天数: 70 天

    [LV.6]常住居民II

    3

    主题

    383

    帖子

    131

    积分

    中级影迷

    Rank: 3Rank: 3

    积分
    131
    发表于 2020-3-23 14:54:46 | 显示全部楼层
    厉害了楼主
    回复

    使用道具 举报

  • TA的每日心情
    开心
    昨天 15:54
  • 签到天数: 90 天

    [LV.6]常住居民II

    6

    主题

    1223

    帖子

    159

    积分

    高级影迷

    Rank: 4

    积分
    159
    发表于 2020-3-23 15:07:28 | 显示全部楼层
    好资源 支持
    回复

    使用道具 举报

    您需要登录后才可以回帖 登录 | 立即注册

    本版积分规则

    QQ|Archiver|手机版|小黑屋|影迷乐园  

    GMT+8, 2020-4-4 04:51 , Processed in 0.149253 second(s), 34 queries .

    Powered by Discuz! X3.3

    © 2001-2017 Comsenz Inc.

    快速回复 返回顶部 返回列表