请选择 进入手机版 | 继续访问电脑版

YMLY-影迷乐园-特效字幕 蓝光原盘 1080P 高清动漫电影电视剧

 找回密码
 立即注册
搜索
查看: 48|回复: 1

[美国] [百度][2017][1080P][小谢尔顿.S01][英语外挂双语ASS&简中SRT][22集全][MKV][31.96GB][Young.Sheldon.S01.1080p.BluRay.x264-SHORTBREHD]

[复制链接]
  • TA的每日心情

    昨天 20:01
  • 签到天数: 14 天

    [LV.3]偶尔看看II

    47

    主题

    69

    帖子

    221

    积分

    高级影迷

    Rank: 4

    积分
    221

    小土豪勋章

    发表于 2020-3-23 15:41:02 | 显示全部楼层 |阅读模式

    若链结失效 可站内信给我 收到信息会立即处理
    特此感谢YYeTs小组提供1080p WEB-DL字幕
    574gd调校匹配1080p Bluray

    取之改变成自己喜好的双语字幕风格


    ◎译  名 小谢尔顿 第一季 / Sheldon / 小小谢尔顿 / 少年谢尔顿 / 少年谢耳朵 / 谢尔顿
    ◎片  名 Young Sheldon Season 1
    ◎年  代 2017
    ◎产  地 美国
    ◎类  别 喜剧
    ◎语  言 英语
    ◎上映日期 2017-09-25(美国)
    ◎IMDb评分  7.3/10 from 26827 users
    ◎IMDb链接  https://www.imdb.com/title/tt6226232
    ◎豆瓣评分 9.1/10 from 59035 users
    ◎豆瓣链接 https://movie.douban.com/subject/26910060/
    ◎集  数 22
    ◎片  长 20分钟
    ◎导  演 乔恩·费儒 Jon Favreau / 迈克尔·津伯格 Michael Zinberg / Jaffar Mahmood
    ◎编  剧 查克·罗瑞 Chuck Lorre / Steven Molaro
    ◎主  演 伊恩·阿米蒂奇 Iain Armitage
           佐伊·派瑞 Zoe Perry
           兰斯·巴伯 Lance Barber
           吉姆·帕森斯 Jim Parsons
           怀亚特·麦克卢尔 Wyatt McClure
           拉根·雷沃德 Raegan Revord
           鲍勃·纽哈特 Bob Newhart
           蒙塔纳·乔丹 Montana Jordan
           安妮·波茨 Annie Potts
           维勒莉·玛哈菲 Valerie Mahaffey
           瑞克斯·林恩 Rex Linn
           布赖恩·斯特帕尼克 Brian Stepanek
           梅丽莎·唐 Melissa Tang


    ◎标  签 美剧 | 喜剧 | 谢耳朵 | 生活大爆炸衍生剧 | 美国 | 家庭 | 儿童 | 衍生剧

    ◎简  介  

      CBS在新喜剧上表现无力下把歪脑筋动到《生活大爆炸 The Big Bang Theory》的Sheldon身上,早前他们宣布开发《生活大爆炸》衍生前传剧,現CBS确定预订命名为《小谢尔顿 Young Sheldon》的衍生剧,顾名思义就是以Sheldon Cooper 为主角。该剧定于17-18年度播出。
      这部喜剧主角不是Sheldon成年版,而是以他9岁时为背景,剧集也会以《马尔柯姆的一家 Malcolm in the Middle》的单镜头家庭喜剧方式制作,讲述Sheldon当年在德州东部的家庭及学校生活。Chuck Lorre与Bill Prady为主创兼执行制片﹑Steve Molaro﹑Todd Spiewak与在《生活大爆炸》饰演Sheldon的Jim Parsons为制作人兼执行制片。
      在过往剧情中,可得知Sheldon的家人包括哥哥George﹑异卵双胞胎姐妹Missy﹑有宗教信仰的妈妈Mary Cooper,以及酗酒的爸爸George Cooper。另外Sheldon还有外婆(Meemaw)及外公(Pop Pop),外公在Sheldon 5岁时去世。
      该剧由Jon Favreau执导, Iain Armitage将饰演年轻版的Sheldon Cooper﹑ Zoe Perry饰演其母亲Mary Cooper﹑Lance Barber饰演Sheldon的父亲﹑Raegan Revord及Montana Jordan饰演Sheldon的兄妹(姐?)﹑Annie Potts饰演外婆。






    1. General
    2. Unique ID                                : 0 (0x0)
    3. Complete name                            : Young.Sheldon.S01E01.1080p.BluRay.x264-SHORTBREHD.mkv
    4. Format                                   : Matroska
    5. Format version                           : Version 4
    6. File size                                : 1.45 GiB
    7. Duration                                 : 21 min 21 s
    8. Overall bit rate                         : 9 728 kb/s
    9. Encoded date                             : UTC 2010-02-22 21:41:29
    10. Writing application                      : no_variable_data
    11. Writing library                          : no_variable_data

    12. Video
    13. ID                                       : 1
    14. Format                                   : AVC
    15. Format/Info                              : Advanced Video Codec
    16. Format profile                           : High@L4.1
    17. Format settings                          : CABAC / 4 Ref Frames
    18. Format settings, CABAC                   : Yes
    19. Format settings, Reference frames        : 4 frames
    20. Codec ID                                 : V_MPEG4/ISO/AVC
    21. Duration                                 : 21 min 21 s
    22. Bit rate                                 : 8 227 kb/s
    23. Width                                    : 1 920 pixels
    24. Height                                   : 1 080 pixels
    25. Display aspect ratio                     : 16:9
    26. Frame rate mode                          : Constant
    27. Frame rate                               : 23.976 (24000/1001) FPS
    28. Color space                              : YUV
    29. Chroma subsampling                       : 4:2:0
    30. Bit depth                                : 8 bits
    31. Scan type                                : Progressive
    32. Bits/(Pixel*Frame)                       : 0.165
    33. Stream size                              : 1.20 GiB (82%)
    34. Writing library                          : x264 core 157 r2932 303c484
    35. Encoding settings                        : cabac=1 / ref=4 / deblock=1:-3:-3 / analyse=0x3:0x113 / me=umh / subme=8 / psy=1 / psy_rd=1.00:0.00 / mixed_ref=1 / me_range=32 / chroma_me=1 / trellis=2 / 8x8dct=1 / cqm=0 / deadzone=21,11 / fast_pskip=1 / chroma_qp_offset=-2 / threads=24 / lookahead_threads=4 / sliced_threads=0 / nr=0 / decimate=1 / interlaced=0 / bluray_compat=0 / constrained_intra=0 / bframes=3 / b_pyramid=2 / b_adapt=2 / b_bias=0 / direct=3 / weightb=1 / open_gop=0 / weightp=2 / keyint=240 / keyint_min=24 / scenecut=40 / intra_refresh=0 / rc_lookahead=50 / rc=2pass / mbtree=1 / bitrate=8227 / ratetol=1.0 / qcomp=0.60 / qpmin=0 / qpmax=69 / qpstep=4 / cplxblur=20.0 / qblur=0.5 / ip_ratio=1.40 / aq=3:0.80
    36. Default                                  : Yes
    37. Forced                                   : No
    38. Statistics Tags Issue                    : no_variable_data 1970-01-01 00:00:00 / no_variable_data 2010-02-22 21:41:29
    39. FromStats_BitRate                        : 8216665
    40. FromStats_Duration                       : 00:21:21.739000000
    41. FromStats_FrameCount                     : 30731
    42. FromStats_StreamSize                     : 1316452549

    43. Audio
    44. ID                                       : 2
    45. Format                                   : DTS
    46. Format/Info                              : Digital Theater Systems
    47. Codec ID                                 : A_DTS
    48. Duration                                 : 21 min 21 s
    49. Bit rate mode                            : Constant
    50. Bit rate                                 : 1 509 kb/s
    51. Channel(s)                               : 6 channels
    52. Channel layout                           : C L R Ls Rs LFE
    53. Sampling rate                            : 48.0 kHz
    54. Frame rate                               : 93.750 FPS (512 SPF)
    55. Bit depth                                : 24 bits
    56. Compression mode                         : Lossy
    57. Stream size                              : 231 MiB (16%)
    58. Language                                 : English
    59. Default                                  : Yes
    60. Forced                                   : No
    61. Statistics Tags Issue                    : no_variable_data 1970-01-01 00:00:00 / no_variable_data 2010-02-22 21:41:29
    62. FromStats_BitRate                        : 1508999
    63. FromStats_Duration                       : 00:21:21.771000000
    64. FromStats_FrameCount                     : 120166
    65. FromStats_StreamSize                     : 241773992

    66. Text #1
    67. ID                                       : 3
    68. Format                                   : UTF-8
    69. Codec ID                                 : S_TEXT/UTF8
    70. Codec ID/Info                            : UTF-8 Plain Text
    71. Language                                 : English
    72. Default                                  : No
    73. Forced                                   : No
    74. Statistics Tags Issue                    : no_variable_data 1970-01-01 00:00:00 / no_variable_data 2010-02-22 21:41:29
    75. FromStats_BitRate                        : 92
    76. FromStats_Duration                       : 00:20:39.613000000
    77. FromStats_FrameCount                     : 461
    78. FromStats_StreamSize                     : 14319

    79. Text #2
    80. ID                                       : 4
    81. Format                                   : UTF-8
    82. Codec ID                                 : S_TEXT/UTF8
    83. Codec ID/Info                            : UTF-8 Plain Text
    84. Title                                    : SDH
    85. Language                                 : English
    86. Default                                  : No
    87. Forced                                   : No
    88. Statistics Tags Issue                    : no_variable_data 1970-01-01 00:00:00 / no_variable_data 2010-02-22 21:41:29
    89. FromStats_BitRate                        : 99
    90. FromStats_Duration                       : 00:20:45.578000000
    91. FromStats_FrameCount                     : 502
    92. FromStats_StreamSize                     : 15469

    93. Menu
    94. 00:00:00.000                             : en:00:00:00.000
    95. 00:05:08.433                             : en:00:05:08.433
    96. 00:10:53.403                             : en:00:10:53.403
    97. 00:20:27.476                             : en:00:20:27.476
    98. 00:20:54.253                             : en:00:20:54.253
    复制代码



    购买主题 本主题需向作者支付 20 大洋 才能浏览
    回复

    使用道具 举报

  • TA的每日心情
    奋斗
    昨天 09:55
  • 签到天数: 337 天

    [LV.8]以坛为家I

    33

    主题

    3879

    帖子

    375

    积分

    超级影迷

    Rank: 6Rank: 6

    积分
    375
    发表于 2020-3-24 11:20:48 | 显示全部楼层
    感谢朋友精彩发布!
    回复

    使用道具 举报

    您需要登录后才可以回帖 登录 | 立即注册

    本版积分规则

    QQ|Archiver|手机版|小黑屋|影迷乐园  

    GMT+8, 2020-4-4 03:14 , Processed in 0.131105 second(s), 34 queries .

    Powered by Discuz! X3.3

    © 2001-2017 Comsenz Inc.

    快速回复 返回顶部 返回列表