请选择 进入手机版 | 继续访问电脑版

YMLY-影迷乐园-特效字幕 蓝光原盘 1080P 高清动漫电影电视剧

 找回密码
 立即注册
搜索
查看: 22|回复: 0

[美国] [百度][2012][1080P][十三号仓库.S04][英语外挂简体中字][MKV][30.53GB][Warehouse.13.S04.2012.1080p.BluRay.x265.HEVC.10bit.AAC5.1-Panda]

[复制链接]
  • TA的每日心情
    慵懒
    2 小时前
  • 签到天数: 271 天

    [LV.8]以坛为家I

    450

    主题

    801

    帖子

    2401

    积分

    稀有影迷

    Rank: 12Rank: 12Rank: 12

    积分
    2401

    土豪勋章小土豪勋章主题达人百分百好孩子最佳新人影迷男神

    发表于 2020-3-23 17:00:51 | 显示全部楼层 |阅读模式


    ◎译  名 十三号仓库 第四季
    ◎片  名 Warehouse 13 Season 4
    ◎年  代 2012
    ◎产  地 美国
    ◎类  别 剧情 / 科幻 / 悬疑
    ◎语  言 英语
    ◎上映日期 2012-07-24
    ◎IMDb评分  8.4/10 from 405 users
    ◎IMDb链接  https://www.imdb.com/title/tt2353463
    ◎豆瓣评分 7.9/10 from 2177 users
    ◎豆瓣链接 https://movie.douban.com/subject/10748727/
    ◎集  数 20
    ◎导  演 Jane Espenson / D. Brent Mote
    ◎主  演 埃迪·麦克林托克 Eddie McClintock
           乔安妮·凯莉 Joanne Kelly
           绍尔·鲁宾内克 Saul Rubinek




    ◎简  介  

      保护了总统的生命安全后,两位FBI特工Myka和Peter发现自己突然被“提拔升官”到南达科他州,一个顶级机密的地点被叫做Warehouse meijubar.net 13,这个地方原来是个巨大的仓库,而仓库内保存的东西都是一些非常奇特的人造物品,这些物品都是被美国政府从各地收集而来,而这两位特工的新工作就是找回遗失的物品,并寻找新的物品。
    1. General
    2. Unique ID                      : 276565513336816913739293103355052711554 (0xD010949342BEC2770D71295BEEB05E82)
    3. Complete name                  : E:\影视\Warehouse 13 (2009) Season 4 S04 (1080p BluRay x265 HEVC 10bit AAC 5.1 Panda)\Warehouse 13 (2009) - S04E01 - A New Hope (1080p BluRay x265 Panda).mkv
    4. Format                         : Matroska
    5. Format version                 : Version 4 / Version 2
    6. File size                      : 1.53 GiB
    7. Duration                       : 42 min 42 s
    8. Overall bit rate               : 5 139 kb/s
    9. Encoded date                   : UTC 2018-08-22 15:36:25
    10. Writing application            : mkvmerge v20.0.0 ('I Am The Sun') 64-bit
    11. Writing library                : libebml v1.3.5 + libmatroska v1.4.8
    12. Writing frontend               : StaxRip v1.7.0.6

    13. Video
    14. ID                             : 1
    15. Format                         : HEVC
    16. Format/Info                    : High Efficiency Video Coding
    17. Format profile                 : Main 10@L4@Main
    18. Codec ID                       : V_MPEGH/ISO/HEVC
    19. Duration                       : 42 min 42 s
    20. Bit rate                       : 4 499 kb/s
    21. Width                          : 1 920 pixels
    22. Height                         : 1 080 pixels
    23. Display aspect ratio           : 16:9
    24. Frame rate mode                : Constant
    25. Frame rate                     : 23.976 (24000/1001) FPS
    26. Color space                    : YUV
    27. Chroma subsampling             : 4:2:0
    28. Bit depth                      : 10 bits
    29. Bits/(Pixel*Frame)             : 0.090
    30. Stream size                    : 1.34 GiB (88%)
    31. Writing library                : x265 2.8+24-289b8a3730ae:[Windows][MSVC 1900][64 bit] 10bit
    32. Encoding settings              : cpuid=1111039 / frame-threads=2 / numa-pools=4 / wpp / no-pmode / no-pme / no-psnr / no-ssim / log-level=2 / input-csp=1 / input-res=1920x1080 / interlace=0 / total-frames=61439 / level-idc=0 / high-tier=1 / uhd-bd=0 / ref=4 / no-allow-non-conformance / no-repeat-headers / annexb / no-aud / no-hrd / info / hash=0 / no-temporal-layers / open-gop / min-keyint=23 / keyint=250 / gop-lookahead=0 / bframes=8 / b-adapt=2 / b-pyramid / bframe-bias=0 / rc-lookahead=80 / lookahead-slices=0 / scenecut=40 / radl=0 / no-intra-refresh / ctu=64 / min-cu-size=8 / no-rect / no-amp / max-tu-size=32 / tu-inter-depth=1 / tu-intra-depth=1 / limit-tu=0 / rdoq-level=2 / dynamic-rd=0.00 / no-ssim-rd / signhide / no-tskip / nr-intra=0 / nr-inter=0 / no-constrained-intra / no-strong-intra-smoothing / max-merge=3 / limit-refs=3 / limit-modes / me=3 / subme=5 / merange=57 / temporal-mvp / weightp / no-weightb / no-analyze-src-pics / deblock=-3:-3 / no-sao / no-sao-non-deblock / rd=4 / no-early-skip / rskip / no-fast-intra / no-tskip-fast / no-cu-lossless / no-b-intra / no-splitrd-skip / rdpenalty=0 / psy-rd=2.00 / psy-rdoq=1.70 / no-rd-refine / no-lossless / cbqpoffs=0 / crqpoffs=0 / rc=abr / bitrate=4500 / qcomp=0.60 / qpstep=4 / stats-write=0 / stats-read=2 / cplxblur=20.0 / qblur=0.5 / ipratio=1.40 / pbratio=1.30 / aq-mode=3 / aq-strength=1.00 / cutree / zone-count=0 / no-strict-cbr / qg-size=32 / no-rc-grain / qpmax=69 / qpmin=0 / no-const-vbv / sar=0 / overscan=0 / videoformat=5 / range=0 / colorprim=2 / transfer=2 / colormatrix=2 / chromaloc=0 / display-window=0 / max-cll=0,0 / min-luma=0 / max-luma=1023 / log2-max-poc-lsb=8 / vui-timing-info / vui-hrd-info / slices=1 / no-opt-qp-pps / no-opt-ref-list-length-pps / no-multi-pass-opt-rps / scenecut-bias=0.05 / no-opt-cu-delta-qp / no-aq-motion / no-hdr / no-hdr-opt / no-dhdr10-opt / no-idr-recovery-sei / analysis-reuse-level=5 / scale-factor=0 / refine-intra=0 / refine-inter=0 / refine-mv=0 / no-limit-sao / ctu-info=0 / no-lowpass-dct / refine-mv-type=0 / copy-pic=1 / max-ausize-factor=1.0 / no-dynamic-refine / no-single-sei
    33. Default                        : Yes
    34. Forced                         : No

    35. Audio #1
    36. ID                             : 2
    37. Format                         : AAC
    38. Format/Info                    : Advanced Audio Codec
    39. Format profile                 : LC
    40. Codec ID                       : A_AAC-2
    41. Duration                       : 42 min 42 s
    42. Bit rate                       : 435 kb/s
    43. Channel(s)                     : 6 channels
    44. Channel positions              : Front: L C R, Side: L R, LFE
    45. Sampling rate                  : 48.0 kHz
    46. Frame rate                     : 46.875 FPS (1024 SPF)
    47. Compression mode               : Lossy
    48. Delay relative to video        : 20 ms
    49. Stream size                    : 133 MiB (8%)
    50. Language                       : English
    51. Default                        : Yes
    52. Forced                         : No

    53. Audio #2
    54. ID                             : 3
    55. Format                         : AAC
    56. Format/Info                    : Advanced Audio Codec
    57. Format profile                 : LC
    58. Codec ID                       : A_AAC-2
    59. Duration                       : 42 min 42 s
    60. Bit rate                       : 152 kb/s
    61. Channel(s)                     : 2 channels
    62. Channel positions              : Front: L R
    63. Sampling rate                  : 48.0 kHz
    64. Frame rate                     : 46.875 FPS (1024 SPF)
    65. Compression mode               : Lossy
    66. Delay relative to video        : 20 ms
    67. Stream size                    : 46.3 MiB (3%)
    68. Language                       : English
    69. Default                        : No
    70. Forced                         : No

    71. Text #1
    72. ID                             : 4
    73. Format                         : PGS
    74. Muxing mode                    : zlib
    75. Codec ID                       : S_HDMV/PGS
    76. Codec ID/Info                  : Picture based subtitle format used on BDs/HD-DVDs
    77. Duration                       : 15 s 975 ms
    78. Bit rate                       : 64.2 kb/s
    79. Count of elements              : 12
    80. Stream size                    : 125 KiB (0%)
    81. Language                       : English
    82. Default                        : No
    83. Forced                         : No

    84. Text #2
    85. ID                             : 5
    86. Format                         : PGS
    87. Muxing mode                    : zlib
    88. Codec ID                       : S_HDMV/PGS
    89. Codec ID/Info                  : Picture based subtitle format used on BDs/HD-DVDs
    90. Duration                       : 42 min 18 s
    91. Bit rate                       : 48.7 kb/s
    92. Count of elements              : 1328
    93. Stream size                    : 14.7 MiB (1%)
    94. Language                       : English
    95. Default                        : No
    96. Forced                         : No

    97. Text #3
    98. ID                             : 6
    99. Format                         : PGS
    100. Muxing mode                    : zlib
    101. Codec ID                       : S_HDMV/PGS
    102. Codec ID/Info                  : Picture based subtitle format used on BDs/HD-DVDs
    103. Duration                       : 42 min 26 s
    104. Bit rate                       : 69.3 kb/s
    105. Count of elements              : 1685
    106. Stream size                    : 21.1 MiB (1%)
    107. Language                       : English
    108. Default                        : No
    109. Forced                         : No

    110. Menu
    111. 00:00:00.000                   : en:Chapter 1
    112. 00:07:20.398                   : en:Chapter 2
    113. 00:21:13.063                   : en:Chapter 3
    114. 00:37:54.814                   : en:Chapter 4

    复制代码



    购买主题 本主题需向作者支付 20 大洋 才能浏览
    回复

    使用道具 举报

    您需要登录后才可以回帖 登录 | 立即注册

    本版积分规则

    QQ|Archiver|手机版|小黑屋|影迷乐园  

    GMT+8, 2020-4-4 03:44 , Processed in 0.139685 second(s), 34 queries .

    Powered by Discuz! X3.3

    © 2001-2017 Comsenz Inc.

    快速回复 返回顶部 返回列表