请选择 进入手机版 | 继续访问电脑版

YMLY-影迷乐园-特效字幕 蓝光原盘 1080P 高清动漫电影电视剧

 找回密码
 立即注册
搜索
查看: 32|回复: 2

[韩国] [百度][2019][1080P][检察官内传][韩语中字][李善均.郑丽媛][MP4][33.20GB]

[复制链接]
  • TA的每日心情
    慵懒
    3 小时前
  • 签到天数: 271 天

    [LV.8]以坛为家I

    450

    主题

    801

    帖子

    2401

    积分

    稀有影迷

    Rank: 12Rank: 12Rank: 12

    积分
    2401

    土豪勋章小土豪勋章主题达人百分百好孩子最佳新人影迷男神

    发表于 2020-3-24 10:57:58 | 显示全部楼层 |阅读模式
    小玩剧字幕组制作



    ◎译  名 检察官内传 / Diary of a Prosecutor / 检察官内战
    ◎片  名 검사내전
    ◎年  代 2019
    ◎产  地 韩国
    ◎类  别 剧情
    ◎语  言 韩语
    ◎上映日期 2019-12-16(韩国)
    ◎IMDb链接  https://www.imdb.com/title/tt11239316
    ◎豆瓣评分 8.6/10 from 935 users
    ◎豆瓣链接 https://movie.douban.com/subject/33476050/
    ◎集  数 16
    ◎片  长 60分钟
    ◎导  演 李太坤 Lee Tae gon
    ◎编  剧 朴妍善 Park Yun Sun
    ◎主  演 李善均 Seon-gyun Lee
           郑丽媛 Ryeo-won Jeong
           李成宰 Sung-jae Lee
           金光奎 Kwang-gyu Kim
           李尚熙 Sang-hee Lee
           全成宇 Seong-woo Jeon
           白贤珠 Hyunjoo Baek
           安昌焕 Chang-hwan An
           安恩珍 Eunjin Ahn
           郑宰成 Jae-sung Jung
           金容熙 Kim Yong-Hee
           车顺裴 Cha Soon-bae


    ◎标  签 韩国 | 2019 | 法律 | JTBC | 喜剧 | 检察官 | 职场剧 | 剧情

    ◎简  介  

      该剧翻拍自同名畅销书,由大检察厅检察官金雄亲自撰写,讲述自己从2000年毕业于司法研修院以来,历经18年检察官工作所经历的种种,金雄本人自称是“生活型检察官”,也通过检察官这一工作了解到了 人世间的种种。早前由首尔中央地方法院法官#文宥锡#撰写的《#汉谟拉比小姐#》就曾被成功搬上电视荧屏,在JTBC播出时获得了不错的口碑,此次由检察官书写的故事又将以怎样的形式被翻拍也引发关注。
    1. General
    2. Complete name                  : F:\TVB\[检察官内传][E01][1080P无剧标][小玩剧字幕组].mp4
    3. Format                         : MPEG-4
    4. Format profile                 : Base Media
    5. Codec ID                       : isom (isom/iso2/avc1/mp41)
    6. File size                      : 2.17 GiB
    7. Duration                       : 1 h 4 min
    8. Overall bit rate               : 4 793 kb/s
    9. Encoded date                   : UTC 2019-12-18 19:26:14
    10. Tagged date                    : UTC 2019-12-18 19:26:14
    11. Writing application            : Lavf58.2.103

    12. Video
    13. ID                             : 1
    14. Format                         : AVC
    15. Format/Info                    : Advanced Video Codec
    16. Format profile                 : High@L4
    17. Format settings                : CABAC / 3 Ref Frames
    18. Format settings, CABAC         : Yes
    19. Format settings, ReFrames      : 3 frames
    20. Codec ID                       : avc1
    21. Codec ID/Info                  : Advanced Video Coding
    22. Duration                       : 1 h 4 min
    23. Bit rate                       : 4 639 kb/s
    24. Width                          : 1 920 pixels
    25. Height                         : 1 080 pixels
    26. Display aspect ratio           : 16:9
    27. Frame rate mode                : Variable
    28. Frame rate                     : 29.970 (29970/1000) FPS
    29. Minimum frame rate             : 12.987 FPS
    30. Maximum frame rate             : 16 000.000 FPS
    31. Color space                    : YUV
    32. Chroma subsampling             : 4:2:0
    33. Bit depth                      : 8 bits
    34. Scan type                      : Progressive
    35. Bits/(Pixel*Frame)             : 0.075
    36. Stream size                    : 2.10 GiB (97%)
    37. Writing library                : x264 core 148
    38. Encoding settings              : cabac=1 / ref=2 / deblock=1:0:0 / analyse=0x3:0 / me=hex / subme=6 / psy=1 / psy_rd=1.00:0.00 / mixed_ref=1 / me_range=16 / chroma_me=1 / trellis=1 / 8x8dct=1 / cqm=0 / deadzone=21,11 / fast_pskip=0 / chroma_qp_offset=-2 / threads=6 / lookahead_threads=1 / sliced_threads=0 / nr=0 / decimate=1 / interlaced=0 / bluray_compat=0 / constrained_intra=0 / bframes=3 / b_pyramid=1 / b_adapt=1 / b_bias=0 / direct=1 / weightb=1 / open_gop=0 / weightp=1 / keyint=60 / keyint_min=30 / scenecut=40 / intra_refresh=0 / rc_lookahead=30 / rc=crf / mbtree=1 / crf=21.0 / qcomp=0.60 / qpmin=3 / qpmax=51 / qpstep=4 / ip_ratio=1.40 / aq=1:1.00
    39. Encoded date                   : UTC 2019-12-18 19:26:14
    40. Tagged date                    : UTC 2019-12-18 19:26:14

    41. Audio
    42. ID                             : 2
    43. Format                         : AAC
    44. Format/Info                    : Advanced Audio Codec
    45. Format profile                 : LC
    46. Codec ID                       : mp4a-40-2
    47. Duration                       : 1 h 4 min
    48. Bit rate mode                  : Constant
    49. Bit rate                       : 144 kb/s
    50. Channel(s)                     : 2 channels
    51. Channel positions              : Front: L R
    52. Sampling rate                  : 48.0 kHz
    53. Frame rate                     : 46.875 FPS (1024 SPF)
    54. Compression mode               : Lossy
    55. Stream size                    : 66.7 MiB (3%)
    56. Default                        : Yes
    57. Alternate group                : 1
    58. Encoded date                   : UTC 2019-12-18 19:26:14
    59. Tagged date                    : UTC 2019-12-18 19:26:14

    60. Other
    61. ID                             : 3
    62. Type                           : Time code
    63. Format                         : QuickTime TC
    64. Duration                       : 1 h 4 min
    65. Time code of first frame       : 00:00:00:00
    66. Time code, striped             : Yes
    67. Language                       : English
    68. Default                        : No
    69. Encoded date                   : UTC 2019-12-18 19:26:14
    70. Tagged date                    : UTC 2019-12-18 19:26:14

    复制代码



    购买主题 本主题需向作者支付 30 大洋 才能浏览
    回复

    使用道具 举报

  • TA的每日心情
    奋斗
    昨天 09:55
  • 签到天数: 337 天

    [LV.8]以坛为家I

    33

    主题

    3879

    帖子

    375

    积分

    超级影迷

    Rank: 6Rank: 6

    积分
    375
    发表于 2020-3-24 11:08:58 | 显示全部楼层
    感谢分享好资源!
    回复

    使用道具 举报

  • TA的每日心情
    擦汗
    昨天 09:03
  • 签到天数: 60 天

    [LV.6]常住居民II

    0

    主题

    80

    帖子

    172

    积分

    高级影迷

    Rank: 4

    积分
    172
    发表于 2020-3-24 11:45:58 | 显示全部楼层
    谢谢分享,这个翻译还不错
    回复

    使用道具 举报

    您需要登录后才可以回帖 登录 | 立即注册

    本版积分规则

    QQ|Archiver|手机版|小黑屋|影迷乐园  

    GMT+8, 2020-4-4 04:48 , Processed in 0.128190 second(s), 32 queries .

    Powered by Discuz! X3.3

    © 2001-2017 Comsenz Inc.

    快速回复 返回顶部 返回列表