请选择 进入手机版 | 继续访问电脑版

YMLY-影迷乐园-特效字幕 蓝光原盘 1080P 高清动漫电影电视剧

 找回密码
 立即注册
搜索
查看: 39|回复: 1

[韩国] [百度][2019][1080P][自白][韩语中字][李俊昊.申贤彬][MP4][23.96GB]

[复制链接]
  • TA的每日心情
    慵懒
    4 小时前
  • 签到天数: 271 天

    [LV.8]以坛为家I

    450

    主题

    801

    帖子

    2401

    积分

    稀有影迷

    Rank: 12Rank: 12Rank: 12

    积分
    2401

    土豪勋章小土豪勋章主题达人百分百好孩子最佳新人影迷男神

    发表于 2020-3-24 11:10:26 | 显示全部楼层 |阅读模式
    小玩剧字幕组制作



    ◎译  名 自白 / Confession
    ◎片  名 자백
    ◎年  代 2019
    ◎产  地 韩国
    ◎类  别 剧情 / 悬疑
    ◎语  言 韩语
    ◎上映日期 2019-03-23(韩国)
    ◎IMDb评分  7.6/10 from 56 users
    ◎IMDb链接  https://www.imdb.com/title/tt9749282
    ◎豆瓣评分 8.5/10 from 8740 users
    ◎豆瓣链接 https://movie.douban.com/subject/30425928/
    ◎集  数 16
    ◎片  长 60分钟
    ◎导  演 金哲圭 Chul Kyu Kim / 尹贤基 Hyun-Ki Yoon
    ◎编  剧 林熙哲
    ◎主  演 李俊昊 Jun-ho Lee
           申贤彬 Hyun-bin Shin
           刘在明 Jae-myung Yoo
           南基爱 Giae Nam
           崔光一 Choi Kwang-il
           李基赫 Ki-hyuk Lee
           张宰昊 Jae-ho Jang
           郑熙泰 Hee-tae Jung
           尹敬浩 Kyung-ho Yoon
           宋永彰 Young-chang Song


    ◎标  签 悬疑 | 韩国 | 犯罪 | 推理 | 罪案 | 剧情 | tvN | 2019

    ◎简  介  

      该剧以“一事不再理原则”(一旦处理过的案件不再审理的法律一般原则)为背景。讲述5年前被派为国选律师崔度贤(李俊昊饰)负责的一起女性被杀案中,该案嫌疑犯韩钟久被起诉杀人,但最终被判无罪。之后韩钟久因为其他杀人案再次被起诉,在裁判过程中他自白自己是5年前的杀人案的真凶,但因为“一事不再理原则”而无法接受处罚。将讲述即使犯人自白了,却无法惩罚的法律的讽刺故事。
    1. General
    2. Complete name                  : F:\TVB\[自白][E01][1080P无台标][小玩剧字幕组].mp4
    3. Format                         : MPEG-4
    4. Format profile                 : Base Media
    5. Codec ID                       : isom (isom/iso2/avc1/mp41)
    6. File size                      : 1.54 GiB
    7. Duration                       : 1 h 1 min
    8. Overall bit rate               : 3 579 kb/s
    9. Encoded date                   : UTC 2019-03-24 08:53:54
    10. Tagged date                    : UTC 2019-03-24 08:53:54
    11. Writing application            : Lavf58.2.103

    12. Video
    13. ID                             : 1
    14. Format                         : AVC
    15. Format/Info                    : Advanced Video Codec
    16. Format profile                 : High@L4
    17. Format settings                : CABAC / 3 Ref Frames
    18. Format settings, CABAC         : Yes
    19. Format settings, ReFrames      : 3 frames
    20. Codec ID                       : avc1
    21. Codec ID/Info                  : Advanced Video Coding
    22. Duration                       : 1 h 1 min
    23. Bit rate                       : 3 377 kb/s
    24. Width                          : 1 920 pixels
    25. Height                         : 1 080 pixels
    26. Display aspect ratio           : 16:9
    27. Frame rate mode                : Variable
    28. Frame rate                     : 29.970 FPS
    29. Minimum frame rate             : 29.412 FPS
    30. Maximum frame rate             : 30.303 FPS
    31. Color space                    : YUV
    32. Chroma subsampling             : 4:2:0
    33. Bit depth                      : 8 bits
    34. Scan type                      : Progressive
    35. Bits/(Pixel*Frame)             : 0.054
    36. Stream size                    : 1.45 GiB (94%)
    37. Encoded date                   : UTC 2019-03-24 08:53:54
    38. Tagged date                    : UTC 2019-03-24 08:53:54

    39. Audio
    40. ID                             : 2
    41. Format                         : AAC
    42. Format/Info                    : Advanced Audio Codec
    43. Format profile                 : LC
    44. Codec ID                       : mp4a-40-2
    45. Duration                       : 1 h 1 min
    46. Bit rate mode                  : Constant
    47. Bit rate                       : 192 kb/s
    48. Channel(s)                     : 2 channels
    49. Channel positions              : Front: L R
    50. Sampling rate                  : 48.0 kHz
    51. Frame rate                     : 46.875 FPS (1024 SPF)
    52. Compression mode               : Lossy
    53. Stream size                    : 84.3 MiB (5%)
    54. Default                        : Yes
    55. Alternate group                : 1
    56. Encoded date                   : UTC 2019-03-24 08:53:54
    57. Tagged date                    : UTC 2019-03-24 08:53:54

    复制代码



    购买主题 本主题需向作者支付 30 大洋 才能浏览
    回复

    使用道具 举报

  • TA的每日心情
    开心
    昨天 21:24
  • 签到天数: 37 天

    [LV.5]常住居民I

    1

    主题

    405

    帖子

    31

    积分

    初级影迷

    Rank: 2

    积分
    31
    QQ
    发表于 7 天前 | 显示全部楼层
    感谢分享,谢谢楼主
    开心看大片
    回复

    使用道具 举报

    您需要登录后才可以回帖 登录 | 立即注册

    本版积分规则

    QQ|Archiver|手机版|小黑屋|影迷乐园  

    GMT+8, 2020-4-4 05:13 , Processed in 0.158174 second(s), 33 queries .

    Powered by Discuz! X3.3

    © 2001-2017 Comsenz Inc.

    快速回复 返回顶部 返回列表