请选择 进入手机版 | 继续访问电脑版

YMLY-影迷乐园-特效字幕 蓝光原盘 1080P 高清动漫电影电视剧

 找回密码
 立即注册
搜索
查看: 39|回复: 2

[美国] [百度][2020][1080P][局外人.S01][英语外挂双语ASS&简中SRT][10集全][MKV][29.46GB][The.Outsider.2020.S01.1080p.AMZN.WEB-DL.DDP5.1.H.264-NTb]

[复制链接]
  • TA的每日心情

    昨天 20:01
  • 签到天数: 14 天

    [LV.3]偶尔看看II

    47

    主题

    69

    帖子

    221

    积分

    高级影迷

    Rank: 4

    积分
    221

    小土豪勋章

    发表于 2020-3-24 11:46:56 | 显示全部楼层 |阅读模式

    若链结失效 可站内信给我 收到信息会立即处理
    特此感谢YYeTs小组提供字幕
    秦仁 调校 第4集 1080p字幕
    字幕调整成喜好风格格式


    ◎译  名 局外人 / 外人
    ◎片  名 The Outsider
    ◎年  代 2020
    ◎产  地 美国
    ◎类  别 恐怖
    ◎语  言 英语
    ◎上映日期 2020-01-12(美国)
    ◎IMDb评分  8.3/10 from 42 users
    ◎IMDb链接  https://www.imdb.com/title/tt8550800
    ◎豆瓣评分 0/10 from 0 users
    ◎豆瓣链接 https://movie.douban.com/subject/30246686/
    ◎集  数 10
    ◎导  演 杰森·贝特曼 Jason Bateman / 安德鲁·伯恩斯坦 Andrew Bernstein
    ◎编  剧 理查德·普莱斯 Richard Price / 斯蒂芬·金 Stephen King
    ◎主  演 本·门德尔森 Ben Mendelsohn
           辛西娅·艾莉佛 Cynthia Erivo
           比尔·坎普 Bill Camp
           梅尔·温宁汉姆 Mare Winningham
           帕迪·康斯戴恩 Paddy Considine
           朱丽安妮·尼科尔森 Julianne Nicholson
           尤尔·瓦斯克斯 Yul Vazquez
           杰里米·博布 Jeremy Bobb
           马克·门查卡 Marc Menchaca
           海缇安·朴 Hettienne Park
           迈克尔·埃斯佩尔 Michael Esper


    ◎标  签 美剧 | 斯蒂芬·金 | HBO | 悬疑 | 恐怖 | 惊悚 | 犯罪 | 美国

    ◎简  介  

      该剧由本·门德尔森主演,聚焦一个11岁男孩被强奸、杀害和分尸的惨案,看似直白的案情却生出疑窦,超自然力量作怪:
      俄克拉何马州小城弗林特,警探Ralph Anderson当着一群人的面逮捕了很受欢迎的老师兼少年棒球联赛教练Terry Maitland,指控他奸杀了一个男孩,并将其分尸。Maitland坚称自己无辜,但Anderson有目击者和确凿的证据(DNA和指纹)证明他有罪。
      地方检察官告诉Anderson,要打破Maitland的不在场证明,把一场本来会是旷日持久的法庭斗争变成情节一目了然的直白案件。而Anderson却意外发现:不仅有多名目击证人声称当凶杀案发生时Maitland并不在城里,安全录像也证实了这一点。
      在私家侦探Holly Gibney(金另一本小说《梅赛德斯先生》的角色)的帮助下,Anderson开始深入调查此案,线索指引两人来到了德克萨斯州的玛丽斯维尔镇,并得到墨西哥裔警官Yune Sablo、居住在拉丁裔为主小镇上的白人女性Lovie Ann Bolton协助。他们发现面临着一个真正的怪物的威胁……小说前半段风格为警察办案,后半段恐怖、超自然元素加剧。






    1. General
    2. Unique ID                                : 173928199189884574575070932062446762223 (0x82D95A4A8095BBF475DDC432E1AF38EF)
    3. Complete name                            : The.Outsider.2020.S01E01.Fish.in.a.Barrel.1080p.AMZN.WEB-DL.DDP5.1.H.264-NTb.mkv
    4. Format                                   : Matroska
    5. Format version                           : Version 4 / Version 2
    6. File size                                : 3.04 GiB
    7. Duration                                 : 1 h 0 min
    8. Overall bit rate                         : 7 156 kb/s
    9. Encoded date                             : UTC 2020-01-13 02:08:35
    10. Writing application                      : mkvmerge v41.0.0 ('Smarra') 64-bit
    11. Writing library                          : libebml v1.3.9 + libmatroska v1.5.2

    12. Video
    13. ID                                       : 1
    14. Format                                   : AVC
    15. Format/Info                              : Advanced Video Codec
    16. Format profile                           : High@L4
    17. Format settings                          : CABAC / 4 Ref Frames
    18. Format settings, CABAC                   : Yes
    19. Format settings, ReFrames                : 4 frames
    20. Codec ID                                 : V_MPEG4/ISO/AVC
    21. Duration                                 : 1 h 0 min
    22. Bit rate mode                            : Constant
    23. Bit rate                                 : 6 514 kb/s
    24. Nominal bit rate                         : 10 000 kb/s
    25. Width                                    : 1 920 pixels
    26. Height                                   : 1 080 pixels
    27. Display aspect ratio                     : 16:9
    28. Frame rate mode                          : Constant
    29. Frame rate                               : 23.976 (24000/1001) FPS
    30. Color space                              : YUV
    31. Chroma subsampling                       : 4:2:0
    32. Bit depth                                : 8 bits
    33. Scan type                                : Progressive
    34. Bits/(Pixel*Frame)                       : 0.131
    35. Stream size                              : 2.77 GiB (91%)
    36. Default                                  : Yes
    37. Forced                                   : No
    38. Color range                              : Limited
    39. Color primaries                          : BT.709
    40. Transfer characteristics                 : BT.709
    41. Matrix coefficients                      : BT.709

    42. Audio
    43. ID                                       : 2
    44. Format                                   : E-AC-3
    45. Format/Info                              : Enhanced Audio Coding 3
    46. Codec ID                                 : A_EAC3
    47. Duration                                 : 1 h 0 min
    48. Bit rate mode                            : Constant
    49. Bit rate                                 : 640 kb/s
    50. Channel(s)                               : 6 channels
    51. Channel positions                        : Front: L C R, Side: L R, LFE
    52. Sampling rate                            : 48.0 kHz
    53. Frame rate                               : 187.500 FPS (256 SPF)
    54. Compression mode                         : Lossy
    55. Delay relative to video                  : 8 ms
    56. Stream size                              : 278 MiB (9%)
    57. Language                                 : English
    58. Service kind                             : Complete Main
    59. Default                                  : Yes
    60. Forced                                   : No

    61. Text
    62. ID                                       : 3
    63. Format                                   : UTF-8
    64. Codec ID                                 : S_TEXT/UTF8
    65. Codec ID/Info                            : UTF-8 Plain Text
    66. Duration                                 : 1 h 0 min
    67. Bit rate                                 : 67 b/s
    68. Count of elements                        : 866
    69. Stream size                              : 29.9 KiB (0%)
    70. Title                                    : SDH
    71. Language                                 : English
    72. Default                                  : No
    73. Forced                                   : No
    复制代码



    购买主题 本主题需向作者支付 20 大洋 才能浏览
    回复

    使用道具 举报

  • TA的每日心情
    开心
    昨天 21:24
  • 签到天数: 37 天

    [LV.5]常住居民I

    1

    主题

    405

    帖子

    31

    积分

    初级影迷

    Rank: 2

    积分
    31
    QQ
    发表于 7 天前 | 显示全部楼层
    好电影值得收藏,感谢楼主辛勤付出!
    开心看大片
    回复

    使用道具 举报

  • TA的每日心情
    擦汗
    4 小时前
  • 签到天数: 71 天

    [LV.6]常住居民II

    41

    主题

    737

    帖子

    260

    积分

    超级影迷

    Rank: 6Rank: 6

    积分
    260

    小土豪勋章

    发表于 昨天 00:06 | 显示全部楼层
    谢谢分享啊
    回复

    使用道具 举报

    您需要登录后才可以回帖 登录 | 立即注册

    本版积分规则

    QQ|Archiver|手机版|小黑屋|影迷乐园  

    GMT+8, 2020-4-4 04:49 , Processed in 0.169313 second(s), 33 queries .

    Powered by Discuz! X3.3

    © 2001-2017 Comsenz Inc.

    快速回复 返回顶部 返回列表