请选择 进入手机版 | 继续访问电脑版

YMLY-影迷乐园-特效字幕 蓝光原盘 1080P 高清动漫电影电视剧

 找回密码
 立即注册
搜索
查看: 36|回复: 1

[日本] [百度][2013][1080P][数学女孩的恋爱事件簿][日语外挂简体中字][桥本爱.高良健吾][MP4][15.71GB]

[复制链接]
  • TA的每日心情
    慵懒
    3 小时前
  • 签到天数: 271 天

    [LV.8]以坛为家I

    450

    主题

    801

    帖子

    2401

    积分

    稀有影迷

    Rank: 12Rank: 12Rank: 12

    积分
    2401

    土豪勋章小土豪勋章主题达人百分百好孩子最佳新人影迷男神

    发表于 2020-3-24 12:28:11 | 显示全部楼层 |阅读模式


    ◎译  名 数学女孩的恋爱事件簿 / Hard Nuts / 数学少女的恋爱事件簿 / 难解之谜:数学女孩的恋爱事件簿
    ◎片  名 ハードナッツ!~数字girlの恋する事件簿~
    ◎年  代 2013
    ◎产  地 日本
    ◎类  别 喜剧 / 犯罪
    ◎语  言 日语
    ◎上映日期 2013-10-20(日本)
    ◎IMDb评分  7.2/10 from 37 users
    ◎IMDb链接  https://www.imdb.com/title/tt3134050
    ◎豆瓣评分 7.5/10 from 2866 users
    ◎豆瓣链接 https://movie.douban.com/subject/25703782/
    ◎集  数 8
    ◎片  长 47分钟
    ◎导  演 河合勇人 Yuto Kawai / 橋本光二郎 Kojiro Hashimoto
    ◎编  剧 莳田光治  Kôji Makita / 山浦雅大
    ◎主  演 桥本爱 Ai Hashimoto
           高良健吾 Kengo Kora
           矢岛健一 Kenichi Yajima
           波冈一喜 Kazuki Namioka
           胜村政信 Masanobu Katsumura


    ◎标  签 日剧 | 桥本爱 | 高良健吾 | 推理 | 看过的电视剧 | 日本 | 13秋 | 日语标签

    ◎简  介  

      就读于东都大学数学系的难波胡桃(桥本爱 饰)是一个认为世间万物都可以通过公式和数字找出规律的女孩,在这个浮华的世界里,遨游于数学海洋中的胡桃单纯可爱,完全不知世间险恶。在因扑克赌博欠下300万日元债务的愁人关头,她邂逅了来学校寻访暗号专家森崎教授的初音署刑警伴田龙彦(高良健吾 饰)。伴田精明干练,却总是郁郁不得志。胡桃运用自己出色的数学才能协助伴田解决了天才数学家设下的爆炸迷局。以此为契机,这两个性格别扭的男女在命运的安排下组成搭档,朝着一桩桩高智商犯罪的考验携手冲去……
      本片根据蒔田光治的原作改编。
    1. General
    2. Complete name                  : F:\TVB\数学女孩的恋爱事件薄EP01.mp4
    3. Format                         : MPEG-4
    4. Format profile                 : Base Media
    5. Codec ID                       : isom (isom/iso2/avc1/mp41)
    6. File size                      : 1.50 GiB
    7. Duration                       : 48 min 2 s
    8. Overall bit rate mode          : Variable
    9. Overall bit rate               : 4 480 kb/s
    10. Movie name                     : ハードナッツ! ~数学girlの恋する事件簿~ DISC1
    11. Writing application            : Lavf56.36.100

    12. Video
    13. ID                             : 1
    14. Format                         : AVC
    15. Format/Info                    : Advanced Video Codec
    16. Format profile                 : Main@L4
    17. Format settings                : CABAC / 3 Ref Frames
    18. Format settings, CABAC         : Yes
    19. Format settings, ReFrames      : 3 frames
    20. Codec ID                       : avc1
    21. Codec ID/Info                  : Advanced Video Coding
    22. Duration                       : 48 min 2 s
    23. Bit rate                       : 4 148 kb/s
    24. Width                          : 1 920 pixels
    25. Height                         : 1 080 pixels
    26. Display aspect ratio           : 16:9
    27. Frame rate mode                : Constant
    28. Frame rate                     : 29.970 (29970/1000) FPS
    29. Color space                    : YUV
    30. Chroma subsampling             : 4:2:0
    31. Bit depth                      : 8 bits
    32. Scan type                      : Progressive
    33. Bits/(Pixel*Frame)             : 0.067
    34. Stream size                    : 1.39 GiB (93%)
    35. Writing library                : x264 core 146 r2538 121396c
    36. Encoding settings              : cabac=1 / ref=3 / deblock=1:0:0 / analyse=0x1:0x130 / me=hex / subme=2 / psy=1 / psy_rd=1.00:0.00 / mixed_ref=1 / me_range=16 / chroma_me=1 / trellis=1 / 8x8dct=0 / cqm=0 / deadzone=21,11 / fast_pskip=1 / chroma_qp_offset=0 / threads=8 / lookahead_threads=2 / sliced_threads=0 / nr=0 / decimate=1 / interlaced=0 / bluray_compat=0 / constrained_intra=0 / bframes=3 / b_pyramid=1 / b_adapt=1 / b_bias=0 / direct=1 / weightb=1 / open_gop=0 / weightp=2 / keyint=250 / keyint_min=25 / scenecut=40 / intra_refresh=0 / rc_lookahead=40 / rc=abr / mbtree=1 / bitrate=4148 / ratetol=1.0 / qcomp=0.60 / qpmin=3 / qpmax=51 / qpstep=4 / vbv_maxrate=8296 / vbv_bufsize=8296 / nal_hrd=none / filler=0 / ip_ratio=1.40 / aq=1:1.00
    37. Language                       : English
    38. Menus                          : 3

    39. Audio
    40. ID                             : 2
    41. Format                         : AAC
    42. Format/Info                    : Advanced Audio Codec
    43. Format profile                 : LC
    44. Codec ID                       : mp4a-40-2
    45. Duration                       : 48 min 2 s
    46. Duration_LastFrame             : -12 ms
    47. Bit rate mode                  : Variable
    48. Bit rate                       : 320 kb/s
    49. Maximum bit rate               : 8 296 kb/s
    50. Channel(s)                     : 2 channels
    51. Channel positions              : Front: L R
    52. Sampling rate                  : 48.0 kHz
    53. Frame rate                     : 46.875 FPS (1024 SPF)
    54. Compression mode               : Lossy
    55. Stream size                    : 110 MiB (7%)
    56. Title                          : Stereo
    57. Default                        : Yes
    58. Alternate group                : 1
    59. Menus                          : 3

    60. Menu #1
    61. ID                             : 3
    62. Codec ID                       : text
    63. Duration                       : 48 min 2 s
    64. Language                       : English
    65. Bit rate mode                  : CBR
    66. Menu For                       : 1,2
    67. 00:00:00.000                   : Chapter 01
    68. 00:07:49.636                   : Chapter 02
    69. 00:19:18.457                   : Chapter 03
    70. 00:28:10.455                   : Chapter 04
    71. 00:37:04.522                   : Chapter 05
    72. 00:47:25.976                   : Chapter 06
    73. 00:48:00.878                   : Chapter 07

    74. Menu #2
    75. 00:00:00.000                   : Chapter 01
    76. 00:07:49.635                   : Chapter 02
    77. 00:19:18.457                   : Chapter 03
    78. 00:28:10.455                   : Chapter 04
    79. 00:37:04.522                   : Chapter 05
    80. 00:47:25.976                   : Chapter 06
    81. 00:48:00.878                   : Chapter 07

    复制代码



    购买主题 本主题需向作者支付 20 大洋 才能浏览
    回复

    使用道具 举报

  • TA的每日心情

    昨天 16:54
  • 签到天数: 70 天

    [LV.6]常住居民II

    3

    主题

    383

    帖子

    131

    积分

    中级影迷

    Rank: 3Rank: 3

    积分
    131
    发表于 2020-3-24 14:58:30 | 显示全部楼层
    感谢楼主的分享
    回复

    使用道具 举报

    您需要登录后才可以回帖 登录 | 立即注册

    本版积分规则

    QQ|Archiver|手机版|小黑屋|影迷乐园  

    GMT+8, 2020-4-4 04:12 , Processed in 0.135409 second(s), 32 queries .

    Powered by Discuz! X3.3

    © 2001-2017 Comsenz Inc.

    快速回复 返回顶部 返回列表