请选择 进入手机版 | 继续访问电脑版

YMLY-影迷乐园-特效字幕 蓝光原盘 1080P 高清动漫电影电视剧

 找回密码
 立即注册
搜索
查看: 63|回复: 7

[美国] [百度][2016][1080P][百年酒馆.S01][英语外挂双语ASS&简中SRT][10集全][MKV][11.07GB][Horace.and.Pete.S01.1080p.WEB-DL.AAC2.0.H.264-BTN]

[复制链接]
  • TA的每日心情

    昨天 20:01
  • 签到天数: 14 天

    [LV.3]偶尔看看II

    47

    主题

    69

    帖子

    221

    积分

    高级影迷

    Rank: 4

    积分
    221

    小土豪勋章

    发表于 2020-3-24 15:15:45 | 显示全部楼层 |阅读模式

    若链结失效 可站内信给我 收到信息会立即处理
    特此感谢电波字幕组提供字幕
    修改成双色风格双语字幕



    ◎译  名 百年酒馆 / Horace & Pete
    ◎片  名 Horace and Pete
    ◎年  代 2016
    ◎产  地 美国
    ◎类  别 剧情 / 喜剧
    ◎语  言 英语
    ◎上映日期 2016-01-30(美国)
    ◎IMDb评分  8.5/10 from 13933 users
    ◎IMDb链接  https://www.imdb.com/title/tt5425186
    ◎豆瓣评分 9.3/10 from 22861 users
    ◎豆瓣链接 https://movie.douban.com/subject/26719562/
    ◎集  数 10
    ◎片  长 67分钟
    ◎导  演 路易斯·C·K Louis C.K.
    ◎编  剧 路易斯·C·K Louis C.K.
    ◎主  演 路易斯·C·K Louis C.K.
           史蒂夫·布西密 Steve Buscemi
           埃迪·法可 Edie Falco
           史蒂夫·赖特 Steven Wright
           阿伦·阿尔达 Alan Alda
           杰西卡·兰格 Jessica Lange
           艾迪·布莱恩特 Aidy Bryant
           Kurt Metzger
           丽贝卡·豪尔 Rebecca Hall


    ◎标  签 美剧 | 黑色幽默 | 美国 | 喜剧 | LouisC.K. | 电视剧 | 2016 | LouisCK

    ◎简  介  

      这家酒吧叫Horace and Pete,开了一百年,这一个世纪由历代的Horace和Pete来经营。这家年迈的酒馆在光鲜的布鲁克林似乎已经过气了,现在的主人也如同这家疲倦的酒馆一样。Horace离过婚,没有固定女友,跟子女处理不好关系;Pete一辈子都在这家酒吧里,有精神疾病,一旦停药就会失控。还有他们的叔叔、姐姐、前妻、爷爷的前女友、不定期的床伴以及定期的老顾客,构成了属于这家酒馆的百年江湖。

    ◎获奖情况  

      第26届哥谭独立电影奖(2016)
      最佳突破剧集(提名) 路易·C·K

      第3届豆瓣电影年度榜单(2016)
      评分最高的英美剧(新剧)(提名)






    1. General
    2. Unique ID                                : 268112995625873396273779874398837202857 (0xC9B4AF46E5252F7F6BEB48EF5240DFA9)
    3. Complete name                            : Horace.And.Pete.S01E01.1080p.Web-DL.mkv
    4. Format                                   : Matroska
    5. Format version                           : Version 4 / Version 2
    6. File size                                : 1.72 GiB
    7. Duration                                 : 1 h 7 min
    8. Overall bit rate                         : 3 627 kb/s
    9. Encoded date                             : UTC 2020-03-24 00:08:47
    10. Writing application                      : mkvmerge v38.0.0 ('The Silent Type') 64-bit
    11. Writing library                          : libebml v1.3.9 + libmatroska v1.5.2

    12. Video
    13. ID                                       : 1
    14. Format                                   : AVC
    15. Format/Info                              : Advanced Video Codec
    16. Format profile                           : Baseline@L4
    17. Format settings                          : 1 Ref Frames
    18. Format settings, CABAC                   : No
    19. Format settings, ReFrames                : 1 frame
    20. Codec ID                                 : V_MPEG4/ISO/AVC
    21. Duration                                 : 1 h 7 min
    22. Bit rate                                 : 3 500 kb/s
    23. Width                                    : 1 920 pixels
    24. Height                                   : 1 080 pixels
    25. Display aspect ratio                     : 16:9
    26. Frame rate mode                          : Constant
    27. Frame rate                               : 23.976 (24000/1001) FPS
    28. Color space                              : YUV
    29. Chroma subsampling                       : 4:2:0
    30. Bit depth                                : 8 bits
    31. Scan type                                : Progressive
    32. Bits/(Pixel*Frame)                       : 0.070
    33. Stream size                              : 1.64 GiB (96%)
    34. Writing library                          : x264 core 142 r2479 dd79a61
    35. Encoding settings                        : cabac=0 / ref=1 / deblock=1:0:0 / analyse=0x1:0x111 / me=hex / subme=2 / psy=1 / psy_rd=1.00:0.00 / mixed_ref=0 / me_range=16 / chroma_me=1 / trellis=0 / 8x8dct=0 / cqm=0 / deadzone=21,11 / fast_pskip=1 / chroma_qp_offset=0 / threads=12 / lookahead_threads=4 / sliced_threads=0 / nr=0 / decimate=1 / interlaced=0 / bluray_compat=0 / constrained_intra=0 / bframes=0 / weightp=0 / keyint=240 / keyint_min=24 / scenecut=40 / intra_refresh=0 / rc_lookahead=10 / rc=abr / mbtree=1 / bitrate=3500 / ratetol=1.0 / qcomp=0.60 / qpmin=0 / qpmax=69 / qpstep=4 / vbv_maxrate=20000 / vbv_bufsize=25000 / nal_hrd=none / filler=0 / ip_ratio=1.40 / aq=1:1.00
    36. Default                                  : Yes
    37. Forced                                   : No
    38. Color range                              : Limited
    39. Color primaries                          : BT.709
    40. Transfer characteristics                 : BT.709
    41. Matrix coefficients                      : BT.709

    42. Audio
    43. ID                                       : 2
    44. Format                                   : AAC
    45. Format/Info                              : Advanced Audio Codec
    46. Format profile                           : LC
    47. Codec ID                                 : A_AAC-2
    48. Duration                                 : 1 h 7 min
    49. Bit rate                                 : 151 kb/s
    50. Channel(s)                               : 2 channels
    51. Channel positions                        : Front: L R
    52. Sampling rate                            : 48.0 kHz
    53. Frame rate                               : 46.875 FPS (1024 SPF)
    54. Compression mode                         : Lossy
    55. Stream size                              : 73.3 MiB (4%)
    56. Language                                 : English
    57. Default                                  : Yes
    58. Forced                                   : No
    复制代码



    购买主题 已有 3 人购买  本主题需向作者支付 30 大洋 才能浏览
    回复

    使用道具 举报

  • TA的每日心情
    开心
    昨天 15:54
  • 签到天数: 90 天

    [LV.6]常住居民II

    6

    主题

    1223

    帖子

    159

    积分

    高级影迷

    Rank: 4

    积分
    159
    发表于 2020-3-24 16:39:48 | 显示全部楼层
    好资源 支持
    回复

    使用道具 举报

  • TA的每日心情
    开心
    2020-3-24 21:14
  • 签到天数: 1 天

    [LV.1]初来乍到

    0

    主题

    35

    帖子

    2

    积分

    入门影迷

    Rank: 1

    积分
    2
    发表于 2020-3-24 21:34:44 | 显示全部楼层
    好资源 支持
    回复

    使用道具 举报

  • TA的每日心情
    开心
    2020-3-24 21:14
  • 签到天数: 1 天

    [LV.1]初来乍到

    0

    主题

    35

    帖子

    2

    积分

    入门影迷

    Rank: 1

    积分
    2
    发表于 2020-3-24 21:35:24 | 显示全部楼层
    好看好看看看看看看
    回复

    使用道具 举报

  • TA的每日心情
    慵懒
    3 小时前
  • 签到天数: 77 天

    [LV.6]常住居民II

    1

    主题

    502

    帖子

    220

    积分

    高级影迷

    Rank: 4

    积分
    220
    发表于 2020-3-24 22:27:35 | 显示全部楼层
    谢谢分享,洗版了!!
    回复

    使用道具 举报

  • TA的每日心情
    开心
    前天 10:20
  • 签到天数: 74 天

    [LV.6]常住居民II

    4

    主题

    865

    帖子

    106

    积分

    中级影迷

    Rank: 3Rank: 3

    积分
    106
    发表于 2020-3-24 23:53:07 | 显示全部楼层
    感谢分享。
    回复

    使用道具 举报

  • TA的每日心情
    开心
    昨天 15:54
  • 签到天数: 90 天

    [LV.6]常住居民II

    6

    主题

    1223

    帖子

    159

    积分

    高级影迷

    Rank: 4

    积分
    159
    发表于 2020-3-25 00:32:27 | 显示全部楼层
    好资源 支持
    回复

    使用道具 举报

  • TA的每日心情
    奋斗
    4 天前
  • 签到天数: 11 天

    [LV.3]偶尔看看II

    0

    主题

    24

    帖子

    23

    积分

    入门影迷

    Rank: 1

    积分
    23
    发表于 5 天前 | 显示全部楼层
    这部剧比较冷门,但真的挺不错的,收了
    回复

    使用道具 举报

    您需要登录后才可以回帖 登录 | 立即注册

    本版积分规则

    QQ|Archiver|手机版|小黑屋|影迷乐园  

    GMT+8, 2020-4-4 03:25 , Processed in 0.152251 second(s), 32 queries .

    Powered by Discuz! X3.3

    © 2001-2017 Comsenz Inc.

    快速回复 返回顶部 返回列表