请选择 进入手机版 | 继续访问电脑版

YMLY-影迷乐园-特效字幕 蓝光原盘 1080P 高清动漫电影电视剧

 找回密码
 立即注册
搜索
查看: 49|回复: 5

[美国] [百度][2004][1080P][神探阿蒙.S03][英语外挂简体中字][MKV][20.30GB][Monk.S03.2004.1080p.AMZN.WEB-DL.x265-RZeroX]

[复制链接]
  • TA的每日心情
    慵懒
    2 小时前
  • 签到天数: 271 天

    [LV.8]以坛为家I

    450

    主题

    801

    帖子

    2401

    积分

    稀有影迷

    Rank: 12Rank: 12Rank: 12

    积分
    2401

    土豪勋章小土豪勋章主题达人百分百好孩子最佳新人影迷男神

    发表于 2020-3-24 16:29:26 | 显示全部楼层 |阅读模式
    字幕来源:TLF字幕组



    ◎译  名 神探阿蒙  第三季
    ◎片  名 Monk Season 3
    ◎年  代 2004
    ◎产  地 美国
    ◎类  别 剧情 / 喜剧 / 悬疑 / 犯罪
    ◎语  言 英语
    ◎上映日期 2004-06-18
    ◎IMDb评分  8.2/10 from 579 users
    ◎IMDb链接  https://www.imdb.com/title/tt0650619
    ◎豆瓣评分 8.8/10 from 711 users
    ◎豆瓣链接 https://movie.douban.com/subject/5977832/
    ◎集  数 16
    ◎片  长 45分钟
    ◎主  演 托尼·谢尔博 Tony Shalhoub


    ◎标  签 美剧 | 侦探 | 推理 | 喜剧 | 悬疑 | 犯罪 | Monk | 美国

    ◎简  介  

      暂无相关剧情介绍

    ◎获奖情况  

      第62届金球奖(2005)
      电视类 音乐/喜剧类剧集最佳男主角(提名) 托尼·夏尔赫布
    1. General
    2. Unique ID                      : 71317842927960904665619527343904110748 (0x35A7512216C7505ABEFF712E8DCFB89C)
    3. Complete name                  : E:\影视\Season 3\Monk (2002) - S03E01 - Mr. Monk Takes Manhattan (1080p AMZN WEB-DL x265 RZeroX).mkv
    4. Format                         : Matroska
    5. Format version                 : Version 4 / Version 2
    6. File size                      : 1.28 GiB
    7. Duration                       : 43 min 18 s
    8. Overall bit rate               : 4 225 kb/s
    9. Encoded date                   : UTC 2019-08-26 23:00:02
    10. Writing application            : mkvmerge v35.0.0 ('All The Love In The World') 64-bit
    11. Writing library                : libebml v1.3.9 + libmatroska v1.5.2

    12. Video
    13. ID                             : 1
    14. Format                         : HEVC
    15. Format/Info                    : High Efficiency Video Coding
    16. Format profile                 : Main 10@L4@Main
    17. Codec ID                       : V_MPEGH/ISO/HEVC
    18. Duration                       : 43 min 18 s
    19. Bit rate                       : 3 999 kb/s
    20. Width                          : 1 920 pixels
    21. Height                         : 1 080 pixels
    22. Display aspect ratio           : 16:9
    23. Frame rate mode                : Constant
    24. Frame rate                     : 23.976 (24000/1001) FPS
    25. Color space                    : YUV
    26. Chroma subsampling             : 4:2:0
    27. Bit depth                      : 10 bits
    28. Bits/(Pixel*Frame)             : 0.080
    29. Stream size                    : 1.21 GiB (95%)
    30. Writing library                : x265 3.1.2+1-76650bab70f9:[Windows][GCC 9.1.1][64 bit] 10bit
    31. Encoding settings              : cpuid=1111039 / frame-threads=3 / numa-pools=12 / wpp / no-pmode / no-pme / no-psnr / no-ssim / log-level=2 / input-csp=1 / input-res=1920x1080 / interlace=0 / total-frames=62312 / level-idc=0 / high-tier=1 / uhd-bd=0 / ref=4 / no-allow-non-conformance / no-repeat-headers / annexb / no-aud / no-hrd / info / hash=0 / no-temporal-layers / open-gop / min-keyint=23 / keyint=250 / gop-lookahead=0 / bframes=8 / b-adapt=2 / b-pyramid / bframe-bias=0 / rc-lookahead=80 / lookahead-slices=4 / scenecut=40 / radl=0 / no-splice / no-intra-refresh / ctu=64 / min-cu-size=8 / no-rect / no-amp / max-tu-size=32 / tu-inter-depth=1 / tu-intra-depth=1 / limit-tu=0 / rdoq-level=2 / dynamic-rd=0.00 / no-ssim-rd / signhide / no-tskip / nr-intra=0 / nr-inter=0 / no-constrained-intra / no-strong-intra-smoothing / max-merge=3 / limit-refs=3 / limit-modes / me=3 / subme=5 / merange=57 / temporal-mvp / weightp / weightb / no-analyze-src-pics / deblock=-3:-3 / no-sao / no-sao-non-deblock / rd=4 / no-early-skip / rskip / no-fast-intra / no-tskip-fast / no-cu-lossless / no-b-intra / no-splitrd-skip / rdpenalty=0 / psy-rd=2.00 / psy-rdoq=2.50 / no-rd-refine / no-lossless / cbqpoffs=0 / crqpoffs=0 / rc=abr / bitrate=4000 / qcomp=0.60 / qpstep=4 / stats-write=0 / stats-read=2 / cplxblur=20.0 / qblur=0.5 / ipratio=1.40 / pbratio=1.30 / aq-mode=3 / aq-strength=1.00 / cutree / zone-count=0 / no-strict-cbr / qg-size=32 / no-rc-grain / qpmax=69 / qpmin=0 / no-const-vbv / sar=0 / overscan=0 / videoformat=5 / range=0 / colorprim=2 / transfer=2 / colormatrix=2 / chromaloc=0 / display-window=0cll=0,0 / min-luma=0 / max-luma=1023 / log2-max-poc-lsb=8 / vui-timing-info / vui-hrd-info / slices=1 / no-opt-qp-pps / no-opt-ref-list-length-pps / no-multi-pass-opt-rps / scenecut-bias=0.05 / no-opt-cu-delta-qp / no-aq-motion / no-hdr / no-hdr-opt / no-dhdr10-opt / no-idr-recovery-sei / analysis-reuse-level=5 / scale-factor=0 / refine-intra=0 / refine-inter=0 / refine-mv=0 / refine-ctu-distortion=0 / no-limit-sao / ctu-info=0 / no-lowpass-dct / refine-analysis-type=0 / copy-pic=1 / max-ausize-factor=1.0 / no-dynamic-refine / no-single-sei / no-hevc-aq / no-svt / no-field / qp-adaptation-range=1.00
    32. Default                        : Yes
    33. Forced                         : No

    34. Audio
    35. ID                             : 2
    36. Format                         : E-AC-3
    37. Format/Info                    : Enhanced Audio Coding 3
    38. Codec ID                       : A_EAC3
    39. Duration                       : 43 min 18 s
    40. Bit rate mode                  : Constant
    41. Bit rate                       : 224 kb/s
    42. Channel(s)                     : 2 channels
    43. Channel positions              : Front: L R
    44. Sampling rate                  : 48.0 kHz
    45. Frame rate                     : 187.500 FPS (256 SPF)
    46. Compression mode               : Lossy
    47. Stream size                    : 69.4 MiB (5%)
    48. Language                       : English
    49. Service kind                   : Complete Main
    50. Default                        : No
    51. Forced                         : No

    52. Text
    53. ID                             : 3
    54. Format                         : UTF-8
    55. Codec ID                       : S_TEXT/UTF8
    56. Codec ID/Info                  : UTF-8 Plain Text
    57. Duration                       : 41 min 56 s
    58. Bit rate                       : 82 b/s
    59. Count of elements              : 940
    60. Stream size                    : 25.3 KiB (0%)
    61. Language                       : English
    62. Default                        : No
    63. Forced                         : No

    复制代码



    购买主题 本主题需向作者支付 20 大洋 才能浏览
    回复

    使用道具 举报

  • TA的每日心情
    开心
    前天 10:20
  • 签到天数: 74 天

    [LV.6]常住居民II

    4

    主题

    865

    帖子

    106

    积分

    中级影迷

    Rank: 3Rank: 3

    积分
    106
    发表于 2020-3-24 23:52:17 | 显示全部楼层
    感谢分享。
    回复

    使用道具 举报

  • TA的每日心情
    开心
    昨天 07:38
  • 签到天数: 44 天

    [LV.5]常住居民I

    2

    主题

    558

    帖子

    269

    积分

    超级影迷

    Rank: 6Rank: 6

    积分
    269
    发表于 2020-3-25 00:35:55 | 显示全部楼层
    感谢发布收藏了
    回复

    使用道具 举报

  • TA的每日心情
    开心
    昨天 15:54
  • 签到天数: 90 天

    [LV.6]常住居民II

    6

    主题

    1223

    帖子

    159

    积分

    高级影迷

    Rank: 4

    积分
    159
    发表于 2020-3-25 00:38:23 | 显示全部楼层
    好资源 支持
    回复

    使用道具 举报

  • TA的每日心情
    开心
    昨天 21:24
  • 签到天数: 37 天

    [LV.5]常住居民I

    1

    主题

    405

    帖子

    31

    积分

    初级影迷

    Rank: 2

    积分
    31
    QQ
    发表于 7 天前 | 显示全部楼层
    感谢分享,谢谢楼主
    开心看大片
    回复

    使用道具 举报

  • TA的每日心情
    开心
    昨天 21:24
  • 签到天数: 37 天

    [LV.5]常住居民I

    1

    主题

    405

    帖子

    31

    积分

    初级影迷

    Rank: 2

    积分
    31
    QQ
    发表于 7 天前 | 显示全部楼层
    好电影值得收藏,感谢楼主辛勤付出!
    开心看大片
    回复

    使用道具 举报

    您需要登录后才可以回帖 登录 | 立即注册

    本版积分规则

    QQ|Archiver|手机版|小黑屋|影迷乐园  

    GMT+8, 2020-4-4 03:49 , Processed in 0.132653 second(s), 33 queries .

    Powered by Discuz! X3.3

    © 2001-2017 Comsenz Inc.

    快速回复 返回顶部 返回列表