请选择 进入手机版 | 继续访问电脑版

YMLY-影迷乐园-特效字幕 蓝光原盘 1080P 高清动漫电影电视剧

 找回密码
 立即注册
搜索
查看: 41|回复: 4

[美国] [百度][2001][古墓丽影][国英双语.中英字幕][2.39GB][MKV][Lara.Croft.Tomb.Raider.2001.Bluray.1080p.x265.AAC(5.1).2Audios.GREENOTEA]

[复制链接]
  • TA的每日心情
    开心
    2020-2-19 17:31
  • 签到天数: 3 天

    [LV.2]偶尔看看I

    36

    主题

    113

    帖子

    150

    积分

    高级影迷

    Rank: 4

    积分
    150
    发表于 5 天前 | 显示全部楼层 |阅读模式


    ◎译  名 古墓丽影 / 古墓奇兵 / 盗墓者罗拉
    ◎片  名 Lara Croft: Tomb Raider
    ◎年  代 2001
    ◎产  地 美国 / 英国 / 德国 / 日本
    ◎类  别 动作 / 冒险
    ◎语  言 英语
    ◎上映日期 2001-06-15(美国)
    ◎IMDb评分  5.8/10 from 189755 users
    ◎IMDb链接  https://www.imdb.com/title/tt0146316
    ◎豆瓣评分 7.0/10 from 105447 users
    ◎豆瓣链接 https://movie.douban.com/subject/1293173/
    ◎片  长 100分钟
    ◎导  演 西蒙·韦斯特 Simon West
    ◎编  剧 Sara B. Cooper / 麦克·韦柏 Mike Werb
    ◎主  演 安吉丽娜·朱莉 Angelina Jolie
           强·沃特 Jon Voight
           伊恩·格雷 Iain Glen
           诺亚·泰勒 Noah Taylor
           丹尼尔·克雷格 Daniel Craig
           理查德·约翰逊 Richard Johnson
           克里斯·巴里 Chris Barrie
           朱利安·林希德-图特 Julian Rhind-Tutt
           莱斯利·菲利普斯 Leslie Phillips


    ◎标  签 动作 | 美国 | AngelinaJolie | 科幻 | 古墓丽影 | 冒险 | 美国电影 | 2001

    ◎简  介  

      20年前罗拉(安吉丽娜•朱莉 饰)的父亲(乔恩•沃伊特 饰)挖掘古墓得到的一个箱子里收藏了一个神秘的钟。罗拉从父亲那里知道,这个钟与一个神秘组织有关。这个叫光明会的组织相信当他们找到这个古钟后,便有了把时间与空间打开的钥匙,一把三角形的金属钥匙。多年来该组织一直在苦苦寻觅。 光明会希望通过这把钥匙让他们的组织始祖复活。但首先要找到钥匙。而且时间紧迫,两天后将出现日全蚀。这个时候三角钥匙内在的力量便会达到最大。光明会不想错过这个大好机会。罗拉扛上了这个艰巨的任务,在重重困难中寻找拯救宇宙的三角钥匙。

    1. General
    2. Unique ID                      : 226557145380744875959390392949599364122 (0xAA7151ACA125E40E92BE8236402BE41A)
    3. Complete name                  : E:\古墓丽影.Lara.Croft.Tomb.Raider.2001.Bluray.1080p.x265.AAC(5.1).2Audios.GREENOTEA\古墓丽影.Lara.Croft.Tomb.Raider.2001.Bluray.1080p.x265.AAC(5.1).2Audios.GREENOTEA.mkv
    4. Format                         : Matroska
    5. Format version                 : Version 4
    6. File size                      : 2.40 GiB
    7. Duration                       : 1 h 40 min
    8. Overall bit rate               : 3 412 kb/s
    9. Movie name                     : www.greenotea.com | 古墓丽影.Lara.Croft.Tomb.Raider.2001.Bluray.1080p.x265.AAC(5.1).2Audios.GREENOTEA
    10. Encoded date                   : UTC 2016-04-09 03:22:03
    11. Writing application            : mkvmerge v7.5.0 ('Glass Culture') 64bit built on Jan  4 2015 16:48:44
    12. Writing library                : libebml v1.3.1 + libmatroska v1.4.2

    13. Video
    14. ID                             : 1
    15. Format                         : HEVC
    16. Format/Info                    : High Efficiency Video Coding
    17. Format profile                 : Main@L4@Main
    18. Codec ID                       : V_MPEGH/ISO/HEVC
    19. Duration                       : 1 h 40 min
    20. Bit rate                       : 2 801 kb/s
    21. Width                          : 1 920 pixels
    22. Height                         : 800 pixels
    23. Display aspect ratio           : 2.40:1
    24. Frame rate mode                : Constant
    25. Frame rate                     : 23.976 (24000/1001) FPS
    26. Color space                    : YUV
    27. Chroma subsampling             : 4:2:0
    28. Bit depth                      : 8 bits
    29. Bits/(Pixel*Frame)             : 0.076
    30. Stream size                    : 1.97 GiB (82%)
    31. Writing library                : x265 1.8+2-55a4a9b920ff:[Windows][GCC 5.2.0][64 bit] 8bit+10bit+12bit
    32. Encoding settings              : wpp / ctu=64 / min-cu-size=8 / max-tu-size=32 / tu-intra-depth=1 / tu-inter-depth=1 / me=1 / subme=2 / merange=57 / no-rect / no-amp / max-merge=2 / temporal-mvp / no-early-skip / rdpenalty=0 / no-tskip / no-tskip-fast / strong-intra-smoothing / no-lossless / no-cu-lossless / no-constrained-intra / no-fast-intra / open-gop / no-temporal-layers / interlace=0 / keyint=250 / min-keyint=23 / scenecut=40 / rc-lookahead=20 / lookahead-slices=0 / bframes=4 / bframe-bias=0 / b-adapt=2 / ref=3 / limit-refs=0 / weightp / no-weightb / aq-mode=1 / qg-size=32 / aq-strength=1.00 / cbqpoffs=0 / crqpoffs=0 / rd=3 / psy-rd=0.30 / rdoq-level=0 / psy-rdoq=0.00 / signhide / deblock / sao / no-sao-non-deblock / b-pyramid / cutree / rc=2 / pass / bitrate=2800 / qcomp=0.60 / qpmin=0 / qpmax=51 / qpstep=4 / cplxblur=20.0 / qblur=0.5 / ipratio=1.40 / pbratio=1.30
    33. Default                        : Yes
    34. Forced                         : No

    35. Audio #1
    36. ID                             : 2
    37. Format                         : AAC LC
    38. Format/Info                    : Advanced Audio Codec Low Complexity
    39. Codec ID                       : A_AAC-2
    40. Duration                       : 1 h 40 min
    41. Bit rate                       : 384 kb/s
    42. Channel(s)                     : 6 channels
    43. Channel layout                 : C L R Ls Rs LFE
    44. Sampling rate                  : 48.0 kHz
    45. Frame rate                     : 46.875 FPS (1024 SPF)
    46. Compression mode               : Lossy
    47. Stream size                    : 276 MiB (11%)
    48. Title                          : 英语(5.1环绕声@384Kbps)
    49. Language                       : English
    50. Default                        : Yes
    51. Forced                         : No

    52. Audio #2
    53. ID                             : 3
    54. Format                         : AAC LC
    55. Format/Info                    : Advanced Audio Codec Low Complexity
    56. Codec ID                       : A_AAC-2
    57. Duration                       : 1 h 40 min
    58. Bit rate                       : 227 kb/s
    59. Channel(s)                     : 2 channels
    60. Channel layout                 : L R
    61. Sampling rate                  : 48.0 kHz
    62. Frame rate                     : 46.875 FPS (1024 SPF)
    63. Compression mode               : Lossy
    64. Delay relative to video        : 200 ms
    65. Stream size                    : 164 MiB (7%)
    66. Title                          : 国语(2.0立体声@224Kbps)
    67. Language                       : Chinese
    68. Default                        : No
    69. Forced                         : No

    70. Text #1
    71. ID                             : 4
    72. Format                         : SSA
    73. Codec ID                       : S_TEXT/SSA
    74. Codec ID/Info                  : Sub Station Alpha
    75. Duration                       : 1 h 32 min
    76. Bit rate                       : 145 b/s
    77. Count of elements              : 621
    78. Compression mode               : Lossless
    79. Stream size                    : 98.1 KiB (0%)
    80. Title                          : 中英特效by晓之绿
    81. Language                       : Chinese
    82. Default                        : Yes
    83. Forced                         : No

    84. Text #2
    85. ID                             : 5
    86. Format                         : UTF-8
    87. Codec ID                       : S_TEXT/UTF8
    88. Codec ID/Info                  : UTF-8 Plain Text
    89. Duration                       : 1 h 31 min
    90. Bit rate                       : 54 b/s
    91. Count of elements              : 621
    92. Stream size                    : 36.6 KiB (0%)
    93. Title                          : 中英对照
    94. Language                       : Chinese
    95. Default                        : No
    96. Forced                         : No

    复制代码





    购买主题 本主题需向作者支付 20 大洋 才能浏览
    回复

    使用道具 举报

  • TA的每日心情
    奋斗
    4 小时前
  • 签到天数: 92 天

    [LV.6]常住居民II

    5

    主题

    887

    帖子

    161

    积分

    高级影迷

    Rank: 4

    积分
    161
    发表于 5 天前 | 显示全部楼层
    谢谢分享好东西
    回复

    使用道具 举报

  • TA的每日心情
    开心
    5 小时前
  • 签到天数: 47 天

    [LV.5]常住居民I

    0

    主题

    611

    帖子

    48

    积分

    初级影迷

    Rank: 2

    积分
    48
    发表于 4 天前 | 显示全部楼层
    谢谢分享精彩电影!
    回复

    使用道具 举报

  • TA的每日心情

    昨天 10:22
  • 签到天数: 66 天

    [LV.6]常住居民II

    3

    主题

    368

    帖子

    135

    积分

    中级影迷

    Rank: 3Rank: 3

    积分
    135
    发表于 4 天前 | 显示全部楼层
    回复

    使用道具 举报

  • TA的每日心情

    14 小时前
  • 签到天数: 356 天

    [LV.8]以坛为家I

    44

    主题

    3244

    帖子

    337

    积分

    超级影迷

    Rank: 6Rank: 6

    积分
    337

    十二生肖之牛射手座勋章

    发表于 前天 01:33 | 显示全部楼层
    感谢分享,
    回复

    使用道具 举报

    您需要登录后才可以回帖 登录 | 立即注册

    本版积分规则

    QQ|Archiver|手机版|小黑屋|影迷乐园  

    GMT+8, 2020-3-30 14:42 , Processed in 0.149296 second(s), 32 queries .

    Powered by Discuz! X3.3

    © 2001-2017 Comsenz Inc.

    快速回复 返回顶部 返回列表