请选择 进入手机版 | 继续访问电脑版

YMLY-影迷乐园-特效字幕 蓝光原盘 1080P 高清动漫电影电视剧

 找回密码
 立即注册
搜索
查看: 55|回复: 7

[美国] [百度][2003][古墓丽影2][国英双语.中英字幕][2.77GB][MKV][Lara.Croft.Tomb.Raider.The.Cradle.of.Life.2003.Bluray.1080p.x265.AAC(5.1).2Audios.GREENOTEA]

[复制链接]
  • TA的每日心情
    开心
    2020-2-19 17:31
  • 签到天数: 3 天

    [LV.2]偶尔看看I

    36

    主题

    113

    帖子

    150

    积分

    高级影迷

    Rank: 4

    积分
    150
    发表于 5 天前 | 显示全部楼层 |阅读模式


    ◎译  名 古墓丽影2 / 古墓奇兵:风起云涌 / 盗墓者罗拉:生命之匙
    ◎片  名 Lara Croft Tomb Raider: The Cradle of Life
    ◎年  代 2003
    ◎产  地 美国 / 德国 / 日本 / 英国
    ◎类  别 动作 / 冒险
    ◎语  言 英语 / 汉语普通话
    ◎上映日期 2003-07-21(美国)
    ◎IMDb评分  5.5/10 from 124724 users
    ◎IMDb链接  https://www.imdb.com/title/tt0325703
    ◎豆瓣评分 6.6/10 from 46510 users
    ◎豆瓣链接 https://movie.douban.com/subject/1307657/
    ◎片  长 117 分钟
    ◎导  演 Jan de Bont
    ◎编  剧 迪恩·乔格瑞斯 Dean Georgaris / 斯蒂芬·E.德·索萨 Steven E. de Souza / 詹姆士·V·哈特 James V. Hart
    ◎主  演 Angelina Jolie
           Gerard Butler
           Ciarán Hinds
           Chris Barrie
           Noah Taylor
           Djimon Hounsou
           Til Schweiger
           任达华
           尹子维


    ◎标  签 动作 | 美国 | AngelinaJolie | 冒险 | 科幻 | 古墓丽影 | 美国电影 | 探险

    ◎简  介  

      罗拉•克劳福特(安吉丽娜•朱莉 饰)这名勇于挑战的探险家继续她的探索之路。这次是寻找早已沉入大海的月神庙。根据资料显示,月神庙内埋藏了传说中的“潘朵拉魔盒”。而一股巨大的能量正存在与这个魔盒当中,同时间邪恶的势力也对这个股力量虎视眈眈。因为这股力量的巨大能足以摧毁整个人类世界,邪恶的势力企图利用的话后果不堪设想。
      罗拉一边寻找这股传说中的神奇力量,一边与香港黑帮的头目斗智斗勇。到底罗拉能不能顺利获得这股力量,保卫整个人类世界的安全呢?

    1. General
    2. Unique ID                      : 245593338010676499150174915622271345710 (0xB8C38E6F0796296ABE15946AA59E642E)
    3. Complete name                  : F:\古墓丽影2.Lara.Croft.Tomb.Raider.The.Cradle.of.Life.2003.Bluray.1080p.x265.AAC(5.1).2Audios.GREENOTEA\古墓丽影2.Lara.Croft.Tomb.Raider.The.Cradle.of.Life.2003.Bluray.1080p.x265.AAC(5.1).2Audios.GREENOTEA.mkv
    4. Format                         : Matroska
    5. Format version                 : Version 4
    6. File size                      : 2.77 GiB
    7. Duration                       : 1 h 57 min
    8. Overall bit rate               : 3 380 kb/s
    9. Movie name                     : www.greenotea.com | 古墓丽影2.Lara.Croft.Tomb.Raider.The.Cradle.of.Life.2003.Bluray.1080p.x265.AAC(5.1).2Audios.GREENOTEA
    10. Encoded date                   : UTC 2016-04-09 15:39:10
    11. Writing application            : mkvmerge v7.5.0 ('Glass Culture') 64bit built on Jan  4 2015 16:48:44
    12. Writing library                : libebml v1.3.1 + libmatroska v1.4.2

    13. Video
    14. ID                             : 1
    15. Format                         : HEVC
    16. Format/Info                    : High Efficiency Video Coding
    17. Format profile                 : Main@L4@Main
    18. Codec ID                       : V_MPEGH/ISO/HEVC
    19. Duration                       : 1 h 57 min
    20. Bit rate                       : 2 801 kb/s
    21. Width                          : 1 920 pixels
    22. Height                         : 816 pixels
    23. Display aspect ratio           : 2.35:1
    24. Frame rate mode                : Constant
    25. Frame rate                     : 23.976 (24000/1001) FPS
    26. Color space                    : YUV
    27. Chroma subsampling             : 4:2:0
    28. Bit depth                      : 8 bits
    29. Bits/(Pixel*Frame)             : 0.075
    30. Stream size                    : 2.30 GiB (83%)
    31. Writing library                : x265 1.8+2-55a4a9b920ff:[Windows][GCC 5.2.0][64 bit] 8bit+10bit+12bit
    32. Encoding settings              : wpp / ctu=64 / min-cu-size=8 / max-tu-size=32 / tu-intra-depth=1 / tu-inter-depth=1 / me=1 / subme=2 / merange=57 / no-rect / no-amp / max-merge=2 / temporal-mvp / no-early-skip / rdpenalty=0 / no-tskip / no-tskip-fast / strong-intra-smoothing / no-lossless / no-cu-lossless / no-constrained-intra / no-fast-intra / open-gop / no-temporal-layers / interlace=0 / keyint=250 / min-keyint=23 / scenecut=40 / rc-lookahead=20 / lookahead-slices=0 / bframes=4 / bframe-bias=0 / b-adapt=2 / ref=3 / limit-refs=0 / weightp / no-weightb / aq-mode=1 / qg-size=32 / aq-strength=1.00 / cbqpoffs=0 / crqpoffs=0 / rd=3 / psy-rd=0.30 / rdoq-level=0 / psy-rdoq=0.00 / signhide / deblock / sao / no-sao-non-deblock / b-pyramid / cutree / rc=2 / pass / bitrate=2800 / qcomp=0.60 / qpmin=0 / qpmax=51 / qpstep=4 / cplxblur=20.0 / qblur=0.5 / ipratio=1.40 / pbratio=1.30
    33. Default                        : Yes
    34. Forced                         : No

    35. Audio #1
    36. ID                             : 2
    37. Format                         : AAC LC
    38. Format/Info                    : Advanced Audio Codec Low Complexity
    39. Codec ID                       : A_AAC-2
    40. Duration                       : 1 h 57 min
    41. Bit rate                       : 384 kb/s
    42. Channel(s)                     : 6 channels
    43. Channel layout                 : C L R Ls Rs LFE
    44. Sampling rate                  : 48.0 kHz
    45. Frame rate                     : 46.875 FPS (1024 SPF)
    46. Compression mode               : Lossy
    47. Stream size                    : 322 MiB (11%)
    48. Title                          : 英语(5.1环绕声@384Kbps)
    49. Language                       : English
    50. Default                        : Yes
    51. Forced                         : No

    52. Audio #2
    53. ID                             : 5
    54. Format                         : AAC LC
    55. Format/Info                    : Advanced Audio Codec Low Complexity
    56. Codec ID                       : A_AAC-2
    57. Duration                       : 1 h 57 min
    58. Bit rate                       : 192 kb/s
    59. Channel(s)                     : 2 channels
    60. Channel layout                 : L R
    61. Sampling rate                  : 44.1 kHz
    62. Frame rate                     : 43.066 FPS (1024 SPF)
    63. Compression mode               : Lossy
    64. Delay relative to video        : 19 ms
    65. Stream size                    : 161 MiB (6%)
    66. Title                          : 国语(2.0立体声@192Kbps)
    67. Language                       : Chinese
    68. Default                        : No
    69. Forced                         : No

    70. Text #1
    71. ID                             : 3
    72. Format                         : SSA
    73. Codec ID                       : S_TEXT/SSA
    74. Codec ID/Info                  : Sub Station Alpha
    75. Duration                       : 1 h 47 min
    76. Bit rate                       : 155 b/s
    77. Count of elements              : 741
    78. Compression mode               : Lossless
    79. Stream size                    : 122 KiB (0%)
    80. Title                          : 中英特效by晓之绿
    81. Language                       : Chinese
    82. Default                        : Yes
    83. Forced                         : No

    84. Text #2
    85. ID                             : 4
    86. Format                         : UTF-8
    87. Codec ID                       : S_TEXT/UTF8
    88. Codec ID/Info                  : UTF-8 Plain Text
    89. Duration                       : 1 h 46 min
    90. Bit rate                       : 63 b/s
    91. Count of elements              : 741
    92. Stream size                    : 49.3 KiB (0%)
    93. Title                          : 中英对照
    94. Language                       : Chinese
    95. Default                        : No
    96. Forced                         : No

    复制代码





    购买主题 本主题需向作者支付 20 大洋 才能浏览
    回复

    使用道具 举报

  • TA的每日心情
    奋斗
    4 小时前
  • 签到天数: 92 天

    [LV.6]常住居民II

    5

    主题

    887

    帖子

    161

    积分

    高级影迷

    Rank: 4

    积分
    161
    发表于 5 天前 | 显示全部楼层
    谢谢分享好东西
    回复

    使用道具 举报

  • TA的每日心情

    15 小时前
  • 签到天数: 356 天

    [LV.8]以坛为家I

    44

    主题

    3244

    帖子

    337

    积分

    超级影迷

    Rank: 6Rank: 6

    积分
    337

    十二生肖之牛射手座勋章

    发表于 4 天前 | 显示全部楼层
    感谢分享,
    回复

    使用道具 举报

  • TA的每日心情
    无聊
    前天 14:42
  • 签到天数: 5 天

    [LV.2]偶尔看看I

    0

    主题

    66

    帖子

    12

    积分

    入门影迷

    Rank: 1

    积分
    12
    发表于 4 天前 | 显示全部楼层
    可惜没有第三步,要是有我一定会看的
    回复

    使用道具 举报

  • TA的每日心情
    开心
    5 小时前
  • 签到天数: 47 天

    [LV.5]常住居民I

    0

    主题

    611

    帖子

    48

    积分

    初级影迷

    Rank: 2

    积分
    48
    发表于 4 天前 | 显示全部楼层
    谢谢分享!
    回复

    使用道具 举报

  • TA的每日心情

    昨天 10:22
  • 签到天数: 66 天

    [LV.6]常住居民II

    3

    主题

    368

    帖子

    135

    积分

    中级影迷

    Rank: 3Rank: 3

    积分
    135
    发表于 4 天前 | 显示全部楼层
    回复

    使用道具 举报

  • TA的每日心情
    开心
    5 小时前
  • 签到天数: 71 天

    [LV.6]常住居民II

    4

    主题

    818

    帖子

    96

    积分

    中级影迷

    Rank: 3Rank: 3

    积分
    96
    发表于 3 天前 | 显示全部楼层
    感谢分享。
    回复

    使用道具 举报

  • TA的每日心情

    15 小时前
  • 签到天数: 356 天

    [LV.8]以坛为家I

    44

    主题

    3244

    帖子

    337

    积分

    超级影迷

    Rank: 6Rank: 6

    积分
    337

    十二生肖之牛射手座勋章

    发表于 昨天 08:28 | 显示全部楼层
    感谢分享,收藏了
    回复

    使用道具 举报

    您需要登录后才可以回帖 登录 | 立即注册

    本版积分规则

    QQ|Archiver|手机版|小黑屋|影迷乐园  

    GMT+8, 2020-3-30 15:12 , Processed in 0.166790 second(s), 34 queries .

    Powered by Discuz! X3.3

    © 2001-2017 Comsenz Inc.

    快速回复 返回顶部 返回列表