请选择 进入手机版 | 继续访问电脑版

YMLY-影迷乐园-特效字幕 蓝光原盘 1080P 高清动漫电影电视剧

 找回密码
 立即注册
搜索
查看: 52|回复: 8

[美国] [百度][2018][古墓丽影:源起之战][国英双语.中英字幕][2.69GB][MKV][Tomb.Raider.2018.Bluray.1080p.x265.AAC(5.1).2Audios.GREENOTEA]

[复制链接]
  • TA的每日心情
    开心
    2020-2-19 17:31
  • 签到天数: 3 天

    [LV.2]偶尔看看I

    36

    主题

    113

    帖子

    150

    积分

    高级影迷

    Rank: 4

    积分
    150
    发表于 5 天前 | 显示全部楼层 |阅读模式


    ◎译  名 古墓丽影:源起之战 / 古墓奇兵(台) / 新古墓丽影 / 盗墓者罗拉(港)
    ◎片  名 Tomb Raider
    ◎年  代 2018
    ◎产  地 美国
    ◎类  别 动作 / 冒险
    ◎语  言 英语
    ◎上映日期 2018-03-16(美国/中国大陆)
    ◎IMDb评分  6.3/10 from 174197 users
    ◎IMDb链接  https://www.imdb.com/title/tt1365519
    ◎豆瓣评分 6.0/10 from 124621 users
    ◎豆瓣链接 https://movie.douban.com/subject/3445906/
    ◎片  长 118分钟
    ◎导  演 罗阿尔·乌索格 Roar Uthaug
    ◎编  剧 吉内瓦·德沃莱特-罗宾森 Geneva Dworet-Robertson / 阿拉斯泰尔·西登斯 Alastair Siddons / 埃文·达赫迪 Evan Daughterty
    ◎主  演 艾丽西亚·维坎德 Alicia Vikander
           多米尼克·威斯特 Dominic West
           沃尔顿·戈金斯 Walton Goggins
           吴彦祖 Daniel Wu
           克里斯汀·斯科特·托马斯 Kristin Scott Thomas
           汉娜·乔恩·卡门 Hannah John-Kamen
           尼克·弗罗斯特 Nick Frost
           德里克·雅各比 Derek Jacobi
           安东尼奥·阿克儿 Antonio Aakeel
           亚历山大·维尧姆 Alexandre Willaume
           杰美·温斯顿 Jaime Winston
           迈克尔·奥拜奥拉 Michael Obiora
           艾米丽·凯里 Emily Carey
           肯尼思·霍 Kenneth Fok


    ◎标  签 动作 | 冒险 | 美国 | 游戏改编 | 盗墓 | 2018 | 女性 | 经典翻拍

    ◎简  介  

      劳拉(艾丽西亚·维坎德 Alicia Vikander 饰)的父亲一生都致力于研究古墓,在劳拉尚且年幼的时候,父亲在一场冒险之中失踪了。一晃眼多年过去,劳拉一直拒绝承认父亲已死的消息,也拒绝接手父亲手下的商业帝国。
      一次偶然中,劳拉发现了父亲遗留下的冒险笔记,父亲希望劳拉能把这些资料付之一炬,但为了寻找父亲的下落,劳拉决定寻找笔记中记载的岛屿。劳拉找到了名为陆仁(吴彦祖 饰)的男子,两人结伴踏上了旅途。刚一上岛,劳拉和陆仁就遇见了一直和父亲作对的马赛亚斯(沃特·戈金斯 Walton Goggins 饰)以及他的雇佣兵团队。马赛亚斯一心想要找到古墓的踪迹,不惜杀死了不肯透露半点消息的劳拉的父亲,如今,劳拉亦落入了他的魔爪之中,会遭遇怎样的命运呢?

    1. General
    2. Unique ID                      : 186319627486434224913501688305311334950 (0x8C2BDADFFD80981FAE899501F3B0C226)
    3. Complete name                  : E:\古墓丽影:源起之战.Tomb.Raider.2018.Bluray.1080p.x265.AAC(5.1).2Audios.GREENOTEA\古墓丽影:源起之战.Tomb.Raider.2018.Bluray.1080p.x265.AAC(5.1).2Audios.GREENOTEA.mkv
    4. Format                         : Matroska
    5. Format version                 : Version 4
    6. File size                      : 2.69 GiB
    7. Duration                       : 1 h 57 min
    8. Overall bit rate               : 3 271 kb/s
    9. Movie name                     : www.greenotea.com | 古墓丽影:源起之战.Tomb.Raider.2018.Bluray.1080p.x265.AAC(5.1).2Audios.GREENOTEA
    10. Encoded date                   : UTC 2019-01-29 01:26:03
    11. Writing application            : mkvmerge v8.1.0 ('Psychedelic Postcard') 64bit
    12. Writing library                : libebml v1.3.1 + libmatroska v1.4.2

    13. Video
    14. ID                             : 1
    15. Format                         : HEVC
    16. Format/Info                    : High Efficiency Video Coding
    17. Format profile                 : Main@L4@Main
    18. Codec ID                       : V_MPEGH/ISO/HEVC
    19. Duration                       : 1 h 57 min
    20. Bit rate                       : 2 500 kb/s
    21. Width                          : 1 920 pixels
    22. Height                         : 800 pixels
    23. Display aspect ratio           : 2.40:1
    24. Frame rate mode                : Constant
    25. Frame rate                     : 23.976 (24000/1001) FPS
    26. Color space                    : YUV
    27. Chroma subsampling             : 4:2:0
    28. Bit depth                      : 8 bits
    29. Bits/(Pixel*Frame)             : 0.068
    30. Stream size                    : 2.06 GiB (76%)
    31. Writing library                : x265 1.8+2-55a4a9b920ff:[Windows][GCC 5.2.0][64 bit] 8bit+10bit+12bit
    32. Encoding settings              : wpp / ctu=64 / min-cu-size=8 / max-tu-size=32 / tu-intra-depth=1 / tu-inter-depth=1 / me=1 / subme=2 / merange=57 / no-rect / no-amp / max-merge=2 / temporal-mvp / no-early-skip / rdpenalty=0 / no-tskip / no-tskip-fast / strong-intra-smoothing / no-lossless / no-cu-lossless / no-constrained-intra / no-fast-intra / open-gop / no-temporal-layers / interlace=0 / keyint=250 / min-keyint=23 / scenecut=40 / rc-lookahead=20 / lookahead-slices=0 / bframes=4 / bframe-bias=0 / b-adapt=2 / ref=3 / limit-refs=0 / weightp / no-weightb / aq-mode=1 / qg-size=32 / aq-strength=1.00 / cbqpoffs=0 / crqpoffs=0 / rd=3 / psy-rd=0.30 / rdoq-level=0 / psy-rdoq=0.00 / signhide / deblock / sao / no-sao-non-deblock / b-pyramid / cutree / rc=2 / pass / bitrate=2500 / qcomp=0.60 / qpmin=0 / qpmax=51 / qpstep=4 / cplxblur=20.0 / qblur=0.5 / ipratio=1.40 / pbratio=1.30
    33. Default                        : Yes
    34. Forced                         : No

    35. Audio #1
    36. ID                             : 2
    37. Format                         : AAC LC
    38. Format/Info                    : Advanced Audio Codec Low Complexity
    39. Codec ID                       : A_AAC-2
    40. Duration                       : 1 h 57 min
    41. Bit rate                       : 384 kb/s
    42. Channel(s)                     : 6 channels
    43. Channel layout                 : C L R Ls Rs LFE
    44. Sampling rate                  : 48.0 kHz
    45. Frame rate                     : 46.875 FPS (1024 SPF)
    46. Compression mode               : Lossy
    47. Stream size                    : 324 MiB (12%)
    48. Title                          : 英语(5.1环绕声@384Kbps)
    49. Language                       : English
    50. Default                        : Yes
    51. Forced                         : No

    52. Audio #2
    53. ID                             : 3
    54. Format                         : AAC LC
    55. Format/Info                    : Advanced Audio Codec Low Complexity
    56. Codec ID                       : A_AAC-2
    57. Duration                       : 1 h 57 min
    58. Bit rate                       : 384 kb/s
    59. Channel(s)                     : 6 channels
    60. Channel layout                 : C L R Ls Rs LFE
    61. Sampling rate                  : 48.0 kHz
    62. Frame rate                     : 46.875 FPS (1024 SPF)
    63. Compression mode               : Lossy
    64. Stream size                    : 324 MiB (12%)
    65. Title                          : 国语(5.1环绕声@384Kbps)
    66. Language                       : Chinese
    67. Default                        : No
    68. Forced                         : No

    69. Text #1
    70. ID                             : 4
    71. Format                         : SSA
    72. Codec ID                       : S_TEXT/SSA
    73. Codec ID/Info                  : Sub Station Alpha
    74. Duration                       : 1 h 50 min
    75. Bit rate                       : 168 b/s
    76. Count of elements              : 902
    77. Compression mode               : Lossless
    78. Stream size                    : 136 KiB (0%)
    79. Title                          : 中英特效by晓之绿
    80. Language                       : Chinese
    81. Default                        : Yes
    82. Forced                         : No

    83. Text #2
    84. ID                             : 5
    85. Format                         : UTF-8
    86. Codec ID                       : S_TEXT/UTF8
    87. Codec ID/Info                  : UTF-8 Plain Text
    88. Duration                       : 1 h 50 min
    89. Bit rate                       : 59 b/s
    90. Count of elements              : 902
    91. Stream size                    : 48.3 KiB (0%)
    92. Title                          : 中英对照
    93. Language                       : Chinese
    94. Default                        : No
    95. Forced                         : No

    复制代码





    购买主题 已有 1 人购买  本主题需向作者支付 20 大洋 才能浏览
    回复

    使用道具 举报

  • TA的每日心情
    奋斗
    5 小时前
  • 签到天数: 92 天

    [LV.6]常住居民II

    5

    主题

    887

    帖子

    161

    积分

    高级影迷

    Rank: 4

    积分
    161
    发表于 5 天前 | 显示全部楼层
    谢谢分享好东西
    回复

    使用道具 举报

  • TA的每日心情

    15 小时前
  • 签到天数: 356 天

    [LV.8]以坛为家I

    44

    主题

    3244

    帖子

    337

    积分

    超级影迷

    Rank: 6Rank: 6

    积分
    337

    十二生肖之牛射手座勋章

    发表于 5 天前 | 显示全部楼层
    感谢分享,
    回复

    使用道具 举报

  • TA的每日心情
    无聊
    前天 14:42
  • 签到天数: 5 天

    [LV.2]偶尔看看I

    0

    主题

    66

    帖子

    12

    积分

    入门影迷

    Rank: 1

    积分
    12
    发表于 4 天前 | 显示全部楼层
    希望以后再出第二部第三部
    回复

    使用道具 举报

  • TA的每日心情
    开心
    6 小时前
  • 签到天数: 47 天

    [LV.5]常住居民I

    0

    主题

    611

    帖子

    47

    积分

    初级影迷

    Rank: 2

    积分
    47
    发表于 4 天前 | 显示全部楼层
    这版劳拉很还原游戏了。
    回复

    使用道具 举报

  • TA的每日心情

    昨天 10:22
  • 签到天数: 66 天

    [LV.6]常住居民II

    3

    主题

    368

    帖子

    135

    积分

    中级影迷

    Rank: 3Rank: 3

    积分
    135
    发表于 4 天前 | 显示全部楼层
    回复

    使用道具 举报

  • TA的每日心情
    开心
    5 小时前
  • 签到天数: 71 天

    [LV.6]常住居民II

    4

    主题

    818

    帖子

    96

    积分

    中级影迷

    Rank: 3Rank: 3

    积分
    96
    发表于 3 天前 | 显示全部楼层
    感谢分享。
    回复

    使用道具 举报

  • TA的每日心情

    15 小时前
  • 签到天数: 356 天

    [LV.8]以坛为家I

    44

    主题

    3244

    帖子

    337

    积分

    超级影迷

    Rank: 6Rank: 6

    积分
    337

    十二生肖之牛射手座勋章

    发表于 前天 01:16 | 显示全部楼层
    下载看看,
    回复

    使用道具 举报

    该用户从未签到

    0

    主题

    50

    帖子

    11

    积分

    入门影迷

    Rank: 1

    积分
    11
    发表于 7 小时前 | 显示全部楼层
    感谢楼主分享!
    回复

    使用道具 举报

    您需要登录后才可以回帖 登录 | 立即注册

    本版积分规则

    QQ|Archiver|手机版|小黑屋|影迷乐园  

    GMT+8, 2020-3-30 15:42 , Processed in 0.150041 second(s), 34 queries .

    Powered by Discuz! X3.3

    © 2001-2017 Comsenz Inc.

    快速回复 返回顶部 返回列表