请选择 进入手机版 | 继续访问电脑版

YMLY-影迷乐园-特效字幕 蓝光原盘 1080P 高清动漫电影电视剧

 找回密码
 立即注册
搜索
查看: 25|回复: 2

[WEB-DL] [百度][2020][1080P][逃离比勒陀利亚][外挂中字][3.94GB][MKV][Escape.from.Pretoria.2020.1080p.WEB-DL.DD5.1.H264-FGT]

[复制链接]
  • TA的每日心情
    开心
    2020-2-19 17:31
  • 签到天数: 3 天

    [LV.2]偶尔看看I

    36

    主题

    113

    帖子

    150

    积分

    高级影迷

    Rank: 4

    积分
    150
    发表于 5 天前 | 显示全部楼层 |阅读模式


    ◎译  名 逃离比勒陀利亚
    ◎片  名 Escape from Pretoria
    ◎年  代 2020
    ◎产  地 英国 / 澳大利亚
    ◎类  别 剧情 / 犯罪
    ◎语  言 英语
    ◎上映日期 2020-03-06(英国)
    ◎IMDb评分  6.6/10 from 2908 users
    ◎IMDb链接  https://www.imdb.com/title/tt5797184
    ◎豆瓣评分 7.7/10 from 10057 users
    ◎豆瓣链接 https://movie.douban.com/subject/27046758/
    ◎片  长 106分钟
    ◎导  演 弗朗西斯·安南 Francis Annan
    ◎编  剧 弗朗西斯·安南 Francis Annan / L.H. Adams / Karol Griffiths / Tim Jenkin
    ◎主  演 丹尼尔·雷德克里夫 Daniel Radcliffe
           伊恩·哈特 Ian Hart
           丹尼尔·韦伯 Daniel Webber
           内森·佩吉 Nathan Page
           斯蒂芬·亨特 Stephen Hunter
           马克·伦纳德·温特 Mark Leonard Winter
           珍妮特·克罗宁 Jeanette Cronin
           Ratidzo Mambo
           Martin Ayles
           David Wilson
           Adam Ovadia
           PJ Oaten
           Lliam Amor
           Paul Harvey
           Lenny Firth


    ◎标  签 越狱 | 真实事件改编 | 犯罪 | 丹尼尔·雷德克里夫 | 剧情 | 英国 | 2020 | 惊悚

    ◎简  介  

      电影根据真实事件改编。丹尼尔将扮演蒂姆·詹金,是两名南非白人中的一员。他们1978年因为参加非洲人民大会秘密反种族隔离行动而被视为恐怖分子并入狱,并策划越狱活动。

    1. General
    2. Unique ID                      : 279239784591316690210290847269696560591 (0xD213A053F15CD6A7CF9982D6B16FDDCF)
    3. Complete name                  : F:\Escape.from.Pretoria.2020.1080p.WEB-DL.DD5.1.H264-FGT\Escape.from.Pretoria.2020.1080p.WEB-DL.DD5.1.H264-FGT.mkv
    4. Format                         : Matroska
    5. Format version                 : Version 4
    6. File size                      : 3.64 GiB
    7. Duration                       : 1 h 46 min
    8. Overall bit rate               : 4 914 kb/s
    9. Movie name                     : Escape from Pretoria.2020.1080p.WEB-DL.DD5.1.H264-FGT
    10. Encoded date                   : UTC 2020-03-05 16:02:48
    11. Writing application            : mkvmerge v43.0.0 ('The Quartermaster') 64-bit
    12. Writing library                : libebml v1.3.10 + libmatroska v1.5.2
    13. Cover                          : Yes
    14. Attachments                    : small_cover.jpg / small_cover_land.jpg / cover.jpg / cover_land.jpg

    15. Video
    16. ID                             : 1
    17. Format                         : AVC
    18. Format/Info                    : Advanced Video Codec
    19. Format profile                 : High@L4
    20. Format settings                : CABAC / 5 Ref Frames
    21. Format settings, CABAC         : Yes
    22. Format settings, Reference fra : 5 frames
    23. Codec ID                       : V_MPEG4/ISO/AVC
    24. Duration                       : 1 h 46 min
    25. Bit rate                       : 4 528 kb/s
    26. Width                          : 1 920 pixels
    27. Height                         : 802 pixels
    28. Display aspect ratio           : 2.40:1
    29. Frame rate mode                : Constant
    30. Frame rate                     : 23.976 (24000/1001) FPS
    31. Color space                    : YUV
    32. Chroma subsampling             : 4:2:0
    33. Bit depth                      : 8 bits
    34. Scan type                      : Progressive
    35. Bits/(Pixel*Frame)             : 0.123
    36. Stream size                    : 3.36 GiB (92%)
    37. Title                          : Escape from Pretoria.2020.1080p.WEB-DL.DD5.1.H264-FGT
    38. Language                       : English
    39. Default                        : Yes
    40. Forced                         : No
    41. Color range                    : Limited
    42. Color primaries                : BT.709
    43. Transfer characteristics       : BT.709
    44. Matrix coefficients            : BT.709

    45. Audio
    46. ID                             : 2
    47. Format                         : AC-3
    48. Format/Info                    : Audio Coding 3
    49. Commercial name                : Dolby Digital
    50. Codec ID                       : A_AC3
    51. Duration                       : 1 h 46 min
    52. Bit rate mode                  : Constant
    53. Bit rate                       : 384 kb/s
    54. Channel(s)                     : 6 channels
    55. Channel layout                 : L R C LFE Ls Rs
    56. Sampling rate                  : 48.0 kHz
    57. Frame rate                     : 31.250 FPS (1536 SPF)
    58. Bit depth                      : 16 bits
    59. Compression mode               : Lossy
    60. Stream size                    : 292 MiB (8%)
    61. Title                          : Escape from Pretoria.2020.1080p.WEB-DL.DD5.1.H264-FGT
    62. Language                       : English
    63. Service kind                   : Complete Main
    64. Default                        : Yes
    65. Forced                         : No

    66. Text
    67. ID                             : 3
    68. Format                         : UTF-8
    69. Codec ID                       : S_TEXT/UTF8
    70. Codec ID/Info                  : UTF-8 Plain Text
    71. Duration                       : 1 min 28 s
    72. Bit rate                       : 54 b/s
    73. Count of elements              : 26
    74. Stream size                    : 603 Bytes (0%)
    75. Language                       : English
    76. Default                        : Yes
    77. Forced                         : Yes

    78. Menu
    79. 00:00:00.000                   : en:Chapter 1
    80. 00:08:30.051                   : en:Chapter 2
    81. 00:17:24.794                   : en:Chapter 3
    82. 00:26:36.804                   : en:Chapter 4
    83. 00:36:27.394                   : en:Chapter 5
    84. 00:46:45.761                   : en:Chapter 6
    85. 00:55:54.976                   : en:Chapter 7
    86. 01:06:30.068                   : en:Chapter 8
    87. 01:18:47.138                   : en:Chapter 9
    88. 01:29:49.257                   : en:Chapter 10
    89. 01:41:08.184                   : en:Chapter 11

    复制代码





    购买主题 本主题需向作者支付 10 大洋 才能浏览
    回复

    使用道具 举报

  • TA的每日心情
    无聊
    前天 14:42
  • 签到天数: 5 天

    [LV.2]偶尔看看I

    0

    主题

    66

    帖子

    12

    积分

    入门影迷

    Rank: 1

    积分
    12
    发表于 4 天前 | 显示全部楼层
    非常悬疑,有悬念
    回复

    使用道具 举报

  • TA的每日心情
    开心
    8 小时前
  • 签到天数: 333 天

    [LV.8]以坛为家I

    33

    主题

    3834

    帖子

    368

    积分

    超级影迷

    Rank: 6Rank: 6

    积分
    368
    发表于 4 天前 | 显示全部楼层
    感谢分享好资源!
    回复

    使用道具 举报

    您需要登录后才可以回帖 登录 | 立即注册

    本版积分规则

    QQ|Archiver|手机版|小黑屋|影迷乐园  

    GMT+8, 2020-3-30 16:11 , Processed in 0.148220 second(s), 36 queries .

    Powered by Discuz! X3.3

    © 2001-2017 Comsenz Inc.

    快速回复 返回顶部 返回列表