请选择 进入手机版 | 继续访问电脑版

YMLY-影迷乐园-特效字幕 蓝光原盘 1080P 高清动漫电影电视剧

 找回密码
 立即注册
搜索
查看: 27|回复: 5

[WEB-DL] [百度][2020][1080P][隐形人][外挂中字][3.76GB][MKV][The.Invisible.Man.2020.1080p.AMZN.WEB-DL.DDP5.1.H.264-NTG]

[复制链接]
  • TA的每日心情
    开心
    2020-2-19 17:31
  • 签到天数: 3 天

    [LV.2]偶尔看看I

    36

    主题

    113

    帖子

    150

    积分

    高级影迷

    Rank: 4

    积分
    150
    发表于 5 天前 | 显示全部楼层 |阅读模式


    ◎译  名 隐形人 / 隐形客(港) / 隐身人
    ◎片  名 The Invisible Man
    ◎年  代 2020
    ◎产  地 澳大利亚 / 美国 / 加拿大 / 英国
    ◎类  别 科幻 / 惊悚 / 恐怖
    ◎语  言 英语
    ◎上映日期 2020-02-28(美国)
    ◎IMDb评分  7.5/10 from 30239 users
    ◎IMDb链接  https://www.imdb.com/title/tt1051906
    ◎豆瓣评分 7.8/10 from 2342 users
    ◎豆瓣链接 https://movie.douban.com/subject/2364086/
    ◎片  长 124分钟
    ◎导  演 雷·沃纳尔 Leigh Whannell
    ◎编  剧 雷·沃纳尔 Leigh Whannell / 赫伯特·乔治·威尔斯 H.G. Wells
    ◎主  演 伊丽莎白·莫斯 Elisabeth Moss
           奥利弗·杰森-科恩 Oliver Jackson-Cohen
           哈丽特·戴尔 Harriet Dyer
           阿尔迪斯·霍吉 Aldis Hodge
           斯托姆·瑞德 Storm Reid
           迈克尔·多曼 Michael Dorman
           本尼迪克·哈迪 Benedict Hardie
           瑞妮·林 Renee Lim
           布莱恩·米根 Brian Meegan
           薇薇安·格里尔 Vivienne Greer
           尼古拉斯·霍普 Nicholas Hope
           克利夫·威廉姆斯 Cleave Williams
           萨姆·史密斯 Sam Smith
           扎拉·迈克尔斯 Zara Michales
           纳许·埃哲顿 Nash Edgerton
           安东尼·布兰登·黄 Anthony Brandon Wong
           阿玛莉·沃德 Amali Ward
           迈克尔·诺特 Michael Knott


    ◎标  签 惊悚 | 恐怖 | 科幻 | 美国 | 2020 | 剧情 | 黑暗宇宙 | 澳大利亚

    ◎简  介  

      丝莉亚(伊莉莎白莫斯 饰)被虐待狂科学家男友折磨至半死,几经艰辛才逃离魔掌。某日她收到通知,得悉对方自杀身亡,更意料地留给她一笔可观财产,怪事随即连环发生,陷井死局,诈光尽现,身边人也逐一遭殃!丝莉亚身心彻底崩溃,认定一切由「看不见」的前度作祟,背后更隐藏天大秘密;眼前一片凶白,随时已身陷惊杀!

    1. General
    2. Unique ID                      : 173080586426538903972436487033909434980 (0x82361BC15A9DB2AA0167F99DCD4C5A64)
    3. Complete name                  : \\dhplus\downloads\The.Invisible.Man.2020.1080p.AMZN.WEBRip.DDP5.1.x264-NTG\The.Invisible.Man.2020.1080p.AMZN.WEB-DL.DDP5.1.H.264-NTG.mkv
    4. Format                         : Matroska
    5. Format version                 : Version 4
    6. File size                      : 3.76 GiB
    7. Duration                       : 2 h 4 min
    8. Overall bit rate               : 4 332 kb/s
    9. Encoded date                   : UTC 2020-03-20 01:04:04
    10. Writing application            : mkvmerge v21.0.0 ('Tardigrades Will Inherit The Earth') 64-bit
    11. Writing library                : libebml v1.3.5 + libmatroska v1.4.8

    12. Video
    13. ID                             : 1
    14. Format                         : AVC
    15. Format/Info                    : Advanced Video Codec
    16. Format profile                 : High@L4
    17. Format settings                : CABAC / 4 Ref Frames
    18. Format settings, CABAC         : Yes
    19. Format settings, Reference fra : 4 frames
    20. Codec ID                       : V_MPEG4/ISO/AVC
    21. Duration                       : 2 h 4 min
    22. Bit rate mode                  : Constant
    23. Bit rate                       : 3 689 kb/s
    24. Nominal bit rate               : 10 000 kb/s
    25. Width                          : 1 920 pixels
    26. Height                         : 800 pixels
    27. Display aspect ratio           : 2.40:1
    28. Frame rate mode                : Constant
    29. Frame rate                     : 23.976 (24000/1001) FPS
    30. Color space                    : YUV
    31. Chroma subsampling             : 4:2:0
    32. Bit depth                      : 8 bits
    33. Scan type                      : Progressive
    34. Bits/(Pixel*Frame)             : 0.100
    35. Stream size                    : 3.21 GiB (85%)
    36. Default                        : Yes
    37. Forced                         : No
    38. Color range                    : Limited
    39. Color primaries                : BT.709
    40. Transfer characteristics       : BT.709
    41. Matrix coefficients            : BT.709

    42. Audio
    43. ID                             : 2
    44. Format                         : E-AC-3
    45. Format/Info                    : Enhanced AC-3
    46. Commercial name                : Dolby Digital Plus
    47. Codec ID                       : A_EAC3
    48. Duration                       : 2 h 4 min
    49. Bit rate mode                  : Constant
    50. Bit rate                       : 640 kb/s
    51. Channel(s)                     : 6 channels
    52. Channel layout                 : L R C LFE Ls Rs
    53. Sampling rate                  : 48.0 kHz
    54. Frame rate                     : 31.250 FPS (1536 SPF)
    55. Compression mode               : Lossy
    56. Stream size                    : 569 MiB (15%)
    57. Language                       : English
    58. Service kind                   : Complete Main
    59. Default                        : Yes
    60. Forced                         : No

    61. Text #1
    62. ID                             : 3
    63. Format                         : UTF-8
    64. Codec ID                       : S_TEXT/UTF8
    65. Codec ID/Info                  : UTF-8 Plain Text
    66. Duration                       : 1 h 49 min
    67. Bit rate                       : 33 b/s
    68. Count of elements              : 965
    69. Stream size                    : 27.2 KiB (0%)
    70. Language                       : English
    71. Default                        : No
    72. Forced                         : No

    73. Text #2
    74. ID                             : 4
    75. Format                         : UTF-8
    76. Codec ID                       : S_TEXT/UTF8
    77. Codec ID/Info                  : UTF-8 Plain Text
    78. Duration                       : 2 h 4 min
    79. Bit rate                       : 38 b/s
    80. Count of elements              : 1416
    81. Stream size                    : 34.7 KiB (0%)
    82. Title                          : SDH
    83. Language                       : English
    84. Default                        : No
    85. Forced                         : No

    复制代码





    购买主题 本主题需向作者支付 10 大洋 才能浏览
    回复

    使用道具 举报

  • TA的每日心情
    开心
    昨天 08:32
  • 签到天数: 55 天

    [LV.5]常住居民I

    0

    主题

    463

    帖子

    73

    积分

    中级影迷

    Rank: 3Rank: 3

    积分
    73
    发表于 4 天前 | 显示全部楼层
    感谢分享。
    回复

    使用道具 举报

  • TA的每日心情
    无聊
    前天 14:42
  • 签到天数: 5 天

    [LV.2]偶尔看看I

    0

    主题

    66

    帖子

    12

    积分

    入门影迷

    Rank: 1

    积分
    12
    发表于 4 天前 | 显示全部楼层
    大晚上看这个,突然有点害怕了
    回复

    使用道具 举报

  • TA的每日心情
    开心
    6 小时前
  • 签到天数: 333 天

    [LV.8]以坛为家I

    33

    主题

    3834

    帖子

    368

    积分

    超级影迷

    Rank: 6Rank: 6

    积分
    368
    发表于 4 天前 | 显示全部楼层
    谢谢发布、分享,赞一个!
    回复

    使用道具 举报

  • TA的每日心情

    昨天 10:22
  • 签到天数: 66 天

    [LV.6]常住居民II

    3

    主题

    368

    帖子

    135

    积分

    中级影迷

    Rank: 3Rank: 3

    积分
    135
    发表于 4 天前 | 显示全部楼层
    回复

    使用道具 举报

  • TA的每日心情
    开心
    4 小时前
  • 签到天数: 47 天

    [LV.5]常住居民I

    0

    主题

    611

    帖子

    48

    积分

    初级影迷

    Rank: 2

    积分
    48
    发表于 4 小时前 | 显示全部楼层
    谢谢分享!
    回复

    使用道具 举报

    您需要登录后才可以回帖 登录 | 立即注册

    本版积分规则

    QQ|Archiver|手机版|小黑屋|影迷乐园  

    GMT+8, 2020-3-30 14:01 , Processed in 0.158568 second(s), 33 queries .

    Powered by Discuz! X3.3

    © 2001-2017 Comsenz Inc.

    快速回复 返回顶部 返回列表