请选择 进入手机版 | 继续访问电脑版

YMLY-影迷乐园-特效字幕 蓝光原盘 1080P 高清动漫电影电视剧

 找回密码
 立即注册
搜索
查看: 41|回复: 2

[WEB-DL] [百度][2020][1080P][刺猬索尼克][外挂中字][3.88GB][MKV][Sonic.the.Hedgehog.2020.1080p.WEB-DL.H264.AAC-EVO]

[复制链接]
  • TA的每日心情
    开心
    2020-2-19 17:31
  • 签到天数: 3 天

    [LV.2]偶尔看看I

    36

    主题

    113

    帖子

    150

    积分

    高级影迷

    Rank: 4

    积分
    150
    发表于 5 天前 | 显示全部楼层 |阅读模式


    ◎译  名 刺猬索尼克 / 超音鼠大电影(港) / 音速小子(台)
    ◎片  名 Sonic the Hedgehog
    ◎年  代 2020
    ◎产  地 加拿大 / 日本 / 美国
    ◎类  别 喜剧 / 动作 / 动画 / 冒险
    ◎语  言 英语
    ◎上映日期 2020(中国大陆) / 2020-02-14(美国)
    ◎IMDb评分  6.7/10 from 35592 users
    ◎IMDb链接  https://www.imdb.com/title/tt3794354
    ◎豆瓣评分 6.1/10 from 6310 users
    ◎豆瓣链接 https://movie.douban.com/subject/25905044/
    ◎片  长 100分钟
    ◎导  演 杰夫·福勒 Jeff Fowler
    ◎编  剧 范·罗比查乌克斯 Van Robichaux / 埃文·萨瑟 Evan Susser / 乔什·米勒 Josh Miller / Patrick Casey / 奥伦·尤济尔 Oren Uziel / 中裕司 Yuji Naka / Naoto Ohshima / Hirokazu Yasuhara
    ◎主  演 詹姆斯·麦斯登 James Marsden
           金·凯瑞 Jim Carrey
           本·施瓦茨 Ben Schwartz
           提卡·森普特 Tika Sumpter
           娜塔莎·罗斯韦尔 Natasha Rothwell
           亚当·佩里 Adam Pally
           李·马贾道布 Lee Majdoub
           尼尔·麦克唐纳 Neal McDonough
           汤姆·巴特勒 Tom Butler
           弗兰克·C·特纳 Frank C. Turner
           梅洛德·诺西普·尼曼 Melody Nosipho Niemann
           珊农·陈-肯特 Shannon Chan-Kent
           布拉德·凯利 Brad Kelly
           尔芬娜·卢克 Elfina Luk
           加里·切克 Gary Chalk
           迈克尔·霍根 Michael Hogan
           珍妮·克鲁蒂尔 Jeanie Cloutier
           贝利·斯科德里 Bailey Skodje
           杰夫·桑卡 Jeff Sanca
           丽莎·钱德勒 Lisa Chandler
           科琳·欧肖内希 Colleen O'Shaughnessey
           利安娜·拉普 Leanne Lapp


    ◎标  签 游戏改编 | 动画 | 美国 | 喜剧 | 科幻 | 2020 | 游戏 | 派拉蒙

    ◎简  介  

      改编自世嘉公司出品的风靡全球的电子游戏。电影讲述了拥有音速奔跑能力的刺猬索尼克在地球上展开新生活的故事。索尼克和他的新朋友汤姆(詹姆斯·麦斯登 饰)联手保护地球,阻止邪恶的蛋头博士(金·凯瑞 饰)统治世界的计划。这部适合全家观看的电影还邀请了迪卡·桑普特参演,本·施瓦茨为索尼克配音。

    1. General
    2. Unique ID                      : 222371964428040706811782229354370015501 (0xA74B485278BECAD1ECF040B35727A10D)
    3. Complete name                  : E:\Sonic.the.Hedgehog.2020.1080p.WEB-DL.H264.AAC-EVO[TGx]\Sonic.the.Hedgehog.2020.1080p.WEB-DL.H264.AAC-EVO.mkv
    4. Format                         : Matroska
    5. Format version                 : Version 4
    6. File size                      : 3.89 GiB
    7. Duration                       : 1 h 39 min
    8. Overall bit rate               : 5 620 kb/s
    9. Encoded date                   : UTC 2020-03-06 19:45:07
    10. Writing application            : mkvmerge v25.0.0 ('Prog Noir') 32-bit
    11. Writing library                : libebml v1.3.6 + libmatroska v1.4.9

    12. Video
    13. ID                             : 1
    14. Format                         : AVC
    15. Format/Info                    : Advanced Video Codec
    16. Format profile                 : High@L4
    17. Format settings                : CABAC / 2 Ref Frames
    18. Format settings, CABAC         : Yes
    19. Format settings, Reference fra : 2 frames
    20. Codec ID                       : V_MPEG4/ISO/AVC
    21. Duration                       : 1 h 39 min
    22. Bit rate                       : 5 359 kb/s
    23. Width                          : 1 920 pixels
    24. Height                         : 1 080 pixels
    25. Display aspect ratio           : 16:9
    26. Frame rate mode                : Constant
    27. Frame rate                     : 23.976 (24000/1001) FPS
    28. Color space                    : YUV
    29. Chroma subsampling             : 4:2:0
    30. Bit depth                      : 8 bits
    31. Scan type                      : Progressive
    32. Bits/(Pixel*Frame)             : 0.108
    33. Stream size                    : 3.71 GiB (95%)
    34. Writing library                : x264 core 155 r2901 7d0ff22
    35. Default                        : Yes
    36. Forced                         : No
    37. Color range                    : Limited
    38. Color primaries                : BT.709
    39. Transfer characteristics       : BT.709
    40. Matrix coefficients            : BT.709

    41. Audio
    42. ID                             : 2
    43. Format                         : AAC LC
    44. Format/Info                    : Advanced Audio Codec Low Complexity
    45. Codec ID                       : A_AAC-2
    46. Duration                       : 1 h 39 min
    47. Bit rate                       : 258 kb/s
    48. Channel(s)                     : 2 channels
    49. Channel layout                 : L R
    50. Sampling rate                  : 44.1 kHz
    51. Frame rate                     : 43.066 FPS (1024 SPF)
    52. Compression mode               : Lossy
    53. Stream size                    : 183 MiB (5%)
    54. Language                       : English
    55. Default                        : Yes
    56. Forced                         : No

    复制代码





    购买主题 本主题需向作者支付 10 大洋 才能浏览
    回复

    使用道具 举报

  • TA的每日心情
    无聊
    前天 14:42
  • 签到天数: 5 天

    [LV.2]偶尔看看I

    0

    主题

    66

    帖子

    12

    积分

    入门影迷

    Rank: 1

    积分
    12
    发表于 4 天前 | 显示全部楼层
    有趣,可以一看
    回复

    使用道具 举报

  • TA的每日心情
    开心
    6 小时前
  • 签到天数: 333 天

    [LV.8]以坛为家I

    33

    主题

    3834

    帖子

    368

    积分

    超级影迷

    Rank: 6Rank: 6

    积分
    368
    发表于 4 天前 | 显示全部楼层
    支持!感谢辛苦发布。
    回复

    使用道具 举报

    您需要登录后才可以回帖 登录 | 立即注册

    本版积分规则

    QQ|Archiver|手机版|小黑屋|影迷乐园  

    GMT+8, 2020-3-30 14:25 , Processed in 0.155407 second(s), 31 queries .

    Powered by Discuz! X3.3

    © 2001-2017 Comsenz Inc.

    快速回复 返回顶部 返回列表