请选择 进入手机版 | 继续访问电脑版

YMLY-影迷乐园-特效字幕 蓝光原盘 1080P 高清动漫电影电视剧

 找回密码
 立即注册
搜索
查看: 62|回复: 3

[美国] [百度][2020][1080P][蓝皮书.S02][英语外挂双语ASS&简中SRT][10集全][MKV][20.43GB][Project.Blue.Book.S02.1080p.AMZN.WEB-DL.DDP2.0.H.264-NTG]

[复制链接]
  • TA的每日心情
    开心
    7 小时前
  • 签到天数: 16 天

    [LV.4]偶尔看看III

    53

    主题

    77

    帖子

    238

    积分

    高级影迷

    Rank: 4

    积分
    238

    小土豪勋章

    发表于 2020-3-26 14:47:46 | 显示全部楼层 |阅读模式

    若链结失效 可站内信给我 收到信息会立即处理
    特此感谢YYeTs小组提供原始字幕
    574gd调校匹配1080p双语字幕
    取之改变成自己喜好的双语字幕风格


    ◎译  名 蓝皮书计划 第二季 / 蓝皮书
    ◎片  名 Project Blue Book Season 2
    ◎年  代 2020
    ◎产  地 美国
    ◎类  别 剧情 / 科幻 / 悬疑 / 惊悚
    ◎语  言 英语
    ◎上映日期 2020-01-21(美国)
    ◎IMDb链接  https://www.imdb.com/title/tt9758092
    ◎豆瓣评分 0/10 from 0 users
    ◎豆瓣链接 https://movie.douban.com/subject/30457157/
    ◎集  数 10
    ◎编  剧 大卫·奥莱利 David O'Leary / Emily Brochin
    ◎主  演 艾丹·吉伦 Aidan Gillen
           迈克尔·马拉基 Michael Malarkey
           劳拉·门内尔 Laura Mennell
           克塞尼亚·索罗 Ksenia Solo
           迈克尔·哈尔尼 Michael Harney
           尼尔·麦克唐纳 Neal McDonough
           斯宾塞·加雷特 Spencer Garrett
           Kevin Hansen
           Darcy Hinds
           Jonathan MacIntyre
           Patrick Ryan
           Todd Thomson
           Truman Tremblay
           Nathan Louvros


    ◎标  签 美剧 | 科幻 | 剧情 | 悬疑 | 艾丹·吉伦 | 历史 | 迈克尔·马拉基 | 惊悚

    ◎简  介  

      历史频道的外星人UFO题材悬疑剧集《蓝皮书计划》续订第2季,仍为10集。






    1. General
    2. Unique ID                                : 282146495044047151281688088672490617847 (0xD4437037C420B5ADADA37547BDE9FBF7)
    3. Complete name                            : Project.Blue.Book.S02E01.The.Roswell.Incident.Part.1.1080p.AMZN.WEB-DL.DDP2.0.H.264-NTG.mkv
    4. Format                                   : Matroska
    5. Format version                           : Version 4
    6. File size                                : 2.49 GiB
    7. Duration                                 : 45 min 32 s
    8. Overall bit rate                         : 7 813 kb/s
    9. Encoded date                             : UTC 2020-01-22 08:08:10
    10. Writing application                      : mkvmerge v21.0.0 ('Tardigrades Will Inherit The Earth') 64-bit
    11. Writing library                          : libebml v1.3.5 + libmatroska v1.4.8

    12. Video
    13. ID                                       : 1
    14. Format                                   : AVC
    15. Format/Info                              : Advanced Video Codec
    16. Format profile                           : High@L4
    17. Format settings                          : CABAC / 4 Ref Frames
    18. Format settings, CABAC                   : Yes
    19. Format settings, Reference frames        : 4 frames
    20. Codec ID                                 : V_MPEG4/ISO/AVC
    21. Duration                                 : 45 min 32 s
    22. Bit rate mode                            : Constant
    23. Bit rate                                 : 7 587 kb/s
    24. Nominal bit rate                         : 10 000 kb/s
    25. Width                                    : 1 920 pixels
    26. Height                                   : 1 040 pixels
    27. Display aspect ratio                     : 1.85:1
    28. Frame rate mode                          : Constant
    29. Frame rate                               : 23.976 (24000/1001) FPS
    30. Color space                              : YUV
    31. Chroma subsampling                       : 4:2:0
    32. Bit depth                                : 8 bits
    33. Scan type                                : Progressive
    34. Bits/(Pixel*Frame)                       : 0.158
    35. Stream size                              : 2.41 GiB (97%)
    36. Default                                  : Yes
    37. Forced                                   : No
    38. Color range                              : Limited
    39. Color primaries                          : BT.709
    40. Transfer characteristics                 : BT.709
    41. Matrix coefficients                      : BT.709

    42. Audio
    43. ID                                       : 2
    44. Format                                   : E-AC-3
    45. Format/Info                              : Enhanced AC-3
    46. Commercial name                          : Dolby Digital Plus
    47. Codec ID                                 : A_EAC3
    48. Duration                                 : 45 min 32 s
    49. Bit rate mode                            : Constant
    50. Bit rate                                 : 224 kb/s
    51. Channel(s)                               : 2 channels
    52. Channel layout                           : L R
    53. Sampling rate                            : 48.0 kHz
    54. Frame rate                               : 31.250 FPS (1536 SPF)
    55. Compression mode                         : Lossy
    56. Stream size                              : 73.0 MiB (3%)
    57. Language                                 : English
    58. Service kind                             : Complete Main
    59. Default                                  : Yes
    60. Forced                                   : No

    61. Text #1
    62. ID                                       : 3
    63. Format                                   : UTF-8
    64. Codec ID                                 : S_TEXT/UTF8
    65. Codec ID/Info                            : UTF-8 Plain Text
    66. Duration                                 : 44 min 52 s
    67. Bit rate                                 : 83 b/s
    68. Count of elements                        : 884
    69. Stream size                              : 27.4 KiB (0%)
    70. Language                                 : English
    71. Default                                  : No
    72. Forced                                   : No

    73. Text #2
    74. ID                                       : 4
    75. Format                                   : UTF-8
    76. Codec ID                                 : S_TEXT/UTF8
    77. Codec ID/Info                            : UTF-8 Plain Text
    78. Duration                                 : 44 min 52 s
    79. Bit rate                                 : 90 b/s
    80. Count of elements                        : 1091
    81. Stream size                              : 29.7 KiB (0%)
    82. Title                                    : SDH
    83. Language                                 : English
    84. Default                                  : No
    85. Forced                                   : No
    复制代码



    购买主题 已有 1 人购买  本主题需向作者支付 20 大洋 才能浏览
    回复

    使用道具 举报

  • TA的每日心情
    开心
    5 小时前
  • 签到天数: 94 天

    [LV.6]常住居民II

    6

    主题

    1273

    帖子

    165

    积分

    高级影迷

    Rank: 4

    积分
    165
    发表于 2020-3-27 01:14:27 | 显示全部楼层
    好资源 支持
    回复

    使用道具 举报

  • TA的每日心情
    开心
    昨天 00:59
  • 签到天数: 39 天

    [LV.5]常住居民I

    1

    主题

    442

    帖子

    37

    积分

    初级影迷

    Rank: 2

    积分
    37
    QQ
    发表于 2020-3-28 00:33:16 | 显示全部楼层
    感谢分享,谢谢楼主
    开心看大片
    回复

    使用道具 举报

  • TA的每日心情
    开心
    2 小时前
  • 签到天数: 22 天

    [LV.4]偶尔看看III

    0

    主题

    49

    帖子

    26

    积分

    初级影迷

    Rank: 2

    积分
    26
    发表于 7 天前 | 显示全部楼层
    谢谢楼主分享的资源
    回复

    使用道具 举报

    您需要登录后才可以回帖 登录 | 立即注册

    本版积分规则

    QQ|Archiver|手机版|小黑屋|影迷乐园  

    GMT+8, 2020-4-7 18:38 , Processed in 0.146239 second(s), 33 queries .

    Powered by Discuz! X3.3

    © 2001-2017 Comsenz Inc.

    快速回复 返回顶部 返回列表