请选择 进入手机版 | 继续访问电脑版

YMLY-影迷乐园-特效字幕 蓝光原盘 1080P 高清动漫电影电视剧

 找回密码
 立即注册
搜索
查看: 57|回复: 4

[美国] [百度][2019][1080P][我们这一天.S04][英语外挂双语ASS&简中SRT][18集全][MKV][53.86GB][This.is.Us.S04.1080p.AMZN.WEB-DL.DD+5.1.H.264-KiNGS]

[复制链接]
  • TA的每日心情

    昨天 20:01
  • 签到天数: 14 天

    [LV.3]偶尔看看II

    47

    主题

    69

    帖子

    221

    积分

    高级影迷

    Rank: 4

    积分
    221

    小土豪勋章

    发表于 2020-3-26 22:47:15 | 显示全部楼层 |阅读模式

    若链结失效 可站内信给我 收到信息会立即处理
    特此感谢YYeTs小组提供原始字幕
    574gdzooey 调校匹配1080p双语字幕
    取之改变成双色风格双语字幕


    ◎译  名 我们这一天 第四季 / 这就是我们
    ◎片  名 This Is Us Season 4
    ◎年  代 2019
    ◎产  地 美国
    ◎类  别 剧情 / 喜剧 / 爱情
    ◎语  言 英语
    ◎上映日期 2019-09-24(美国)
    ◎IMDb评分  9.1/10 from 1145 users
    ◎IMDb链接  https://www.imdb.com/title/tt10322306
    ◎豆瓣评分 9.5/10 from 8290 users
    ◎豆瓣链接 https://movie.douban.com/subject/33444115/
    ◎集  数 18
    ◎片  长 50分钟
    ◎导  演 肯·奥林 Ken Olin / 克里斯·科赫 Chris Koch / 小乔治·提尔曼 George Tillman Jr.
    ◎编  剧 丹·福格尔曼 Dan Fogelman / 艾萨克·阿普塔克 Isaac Aptaker / 伊丽莎白·伯格 Elizabeth Berger
    ◎主  演 米洛·文堤米利亚 Milo Ventimiglia
           曼迪·摩尔 Mandy Moore
           斯特林·K·布朗 Sterling K. Brown
           克丽丝·梅斯 Chrissy Metz
           贾斯汀·哈特雷 Justin Hartley
           苏珊·卡莱布·沃森 Susan Kelechi Watson
           克里斯·沙利文 Chris Sullivan
           厄里斯·贝克 Eris Baker
           费丝·赫尔曼 Faithe Herman
           乔·胡尔特拉斯 Jon Huertas
           迈克尔·安格拉诺 Michael Angarano
           亚利桑德拉·布莱肯瑞吉 Alexandra Breckenridge
           洛根·施罗耶 Logan Shroyer
           詹妮弗·莫里森 Jennifer Morrison
           麦肯齐·汉奇恰克 Mackenzie Hancsicsak
           帕克·贝茨 Parker Bates
           汉娜·蔡勒 Hannah Zeile
           朗尼·查维斯 Lonnie Chavis
           尼尔斯·菲奇 Niles Fitch
           罗恩·彼得·琼斯 Ron Cephas Jones
           利丽克·罗斯 Lyric Ross
           奥斯汀·艾布拉姆斯 Austin Abrams


    ◎标  签 家庭 | 治愈 | 温情 | 温馨 | 美国 | 人性 | 亲情 | 2019

    ◎简  介  

      NBC宣布一次性续订《#我们这一天#》三季,即第四、五、六季,每季18集。

    ◎获奖情况  

      第26届美国演员工会奖(2020)
      电视奖 剧情类剧集最佳男演员(提名) 斯特林·K·布朗

      第72届美国编剧工会奖(2020)
      电视奖 剧情类剧集最佳单集剧本(提名)

      第67届美国音效剪辑协会奖(2020)
      金卷轴奖 Best Sound Editing in Television - Short Form: Musical(提名)

      第10届美国评论家选择电视奖(2020)
      剧情类最佳剧集(提名)
      剧情类最佳男主角(提名) 斯特林·K·布朗
      剧情类最佳男配角(提名) 贾斯汀·哈特雷 / 安萨特·布莱克
      剧情类最佳女配角(提名) 苏珊·卡莉奇·沃森






    1. General
    2. Unique ID                                : 193711657524688624592740660690209656675 (0x91BB82181BCE3FC8B730020AC84ACF63)
    3. Complete name                            : This.is.Us.S04E01.Strangers.1080p.AMZN.WEB-DL.DD+5.1.H.264-KiNGS.mkv
    4. Format                                   : Matroska
    5. Format version                           : Version 4
    6. File size                                : 3.50 GiB
    7. Duration                                 : 49 min 45 s
    8. Overall bit rate                         : 10.1 Mb/s
    9. Encoded date                             : UTC 2019-09-25 12:43:09
    10. Writing application                      : mkvmerge v37.0.0 ('Leave It') 64-bit
    11. Writing library                          : libebml v1.3.9 + libmatroska v1.5.2

    12. Video
    13. ID                                       : 1
    14. Format                                   : AVC
    15. Format/Info                              : Advanced Video Codec
    16. Format profile                           : High@L4
    17. Format settings                          : CABAC / 4 Ref Frames
    18. Format settings, CABAC                   : Yes
    19. Format settings, Reference frames        : 4 frames
    20. Codec ID                                 : V_MPEG4/ISO/AVC
    21. Duration                                 : 49 min 45 s
    22. Bit rate mode                            : Constant
    23. Bit rate                                 : 9 425 kb/s
    24. Nominal bit rate                         : 10 000 kb/s
    25. Width                                    : 1 920 pixels
    26. Height                                   : 1 080 pixels
    27. Display aspect ratio                     : 16:9
    28. Frame rate mode                          : Constant
    29. Frame rate                               : 23.976 (24000/1001) FPS
    30. Color space                              : YUV
    31. Chroma subsampling                       : 4:2:0
    32. Bit depth                                : 8 bits
    33. Scan type                                : Progressive
    34. Bits/(Pixel*Frame)                       : 0.190
    35. Stream size                              : 3.28 GiB (94%)
    36. Default                                  : Yes
    37. Forced                                   : No
    38. Color range                              : Limited
    39. Color primaries                          : BT.709
    40. Transfer characteristics                 : BT.709
    41. Matrix coefficients                      : BT.709

    42. Audio
    43. ID                                       : 2
    44. Format                                   : E-AC-3
    45. Format/Info                              : Enhanced AC-3
    46. Commercial name                          : Dolby Digital Plus
    47. Codec ID                                 : A_EAC3
    48. Duration                                 : 49 min 45 s
    49. Bit rate mode                            : Constant
    50. Bit rate                                 : 640 kb/s
    51. Channel(s)                               : 6 channels
    52. Channel layout                           : L R C LFE Ls Rs
    53. Sampling rate                            : 48.0 kHz
    54. Frame rate                               : 31.250 FPS (1536 SPF)
    55. Compression mode                         : Lossy
    56. Stream size                              : 228 MiB (6%)
    57. Language                                 : English
    58. Service kind                             : Complete Main
    59. Default                                  : Yes
    60. Forced                                   : No

    61. Text #1
    62. ID                                       : 3
    63. Format                                   : UTF-8
    64. Codec ID                                 : S_TEXT/UTF8
    65. Codec ID/Info                            : UTF-8 Plain Text
    66. Duration                                 : 49 min 17 s
    67. Bit rate                                 : 71 b/s
    68. Count of elements                        : 966
    69. Stream size                              : 25.7 KiB (0%)
    70. Language                                 : English
    71. Default                                  : No
    72. Forced                                   : No

    73. Text #2
    74. ID                                       : 4
    75. Format                                   : UTF-8
    76. Codec ID                                 : S_TEXT/UTF8
    77. Codec ID/Info                            : UTF-8 Plain Text
    78. Duration                                 : 49 min 17 s
    79. Bit rate                                 : 71 b/s
    80. Count of elements                        : 979
    81. Stream size                              : 25.7 KiB (0%)
    82. Title                                    : SDH
    83. Language                                 : English
    84. Default                                  : No
    85. Forced                                   : No
    复制代码



    购买主题 本主题需向作者支付 20 大洋 才能浏览
    回复

    使用道具 举报

  • TA的每日心情
    开心
    昨天 15:54
  • 签到天数: 90 天

    [LV.6]常住居民II

    6

    主题

    1223

    帖子

    159

    积分

    高级影迷

    Rank: 4

    积分
    159
    发表于 2020-3-27 01:16:33 | 显示全部楼层
    好资源 支持
    回复

    使用道具 举报

  • TA的每日心情
    奋斗
    昨天 08:08
  • 签到天数: 8 天

    [LV.3]偶尔看看II

    0

    主题

    75

    帖子

    4

    积分

    入门影迷

    Rank: 1

    积分
    4
    发表于 2020-3-27 08:03:53 | 显示全部楼层
    这个是什么类型的资源?
    回复

    使用道具 举报

  • TA的每日心情
    开心
    前天 10:20
  • 签到天数: 74 天

    [LV.6]常住居民II

    4

    主题

    865

    帖子

    106

    积分

    中级影迷

    Rank: 3Rank: 3

    积分
    106
    发表于 2020-3-27 12:44:59 | 显示全部楼层
    感谢分享。
    回复

    使用道具 举报

  • TA的每日心情
    开心
    昨天 07:38
  • 签到天数: 44 天

    [LV.5]常住居民I

    2

    主题

    558

    帖子

    269

    积分

    超级影迷

    Rank: 6Rank: 6

    积分
    269
    发表于 7 天前 | 显示全部楼层
    感谢发布收藏了
    回复

    使用道具 举报

    您需要登录后才可以回帖 登录 | 立即注册

    本版积分规则

    QQ|Archiver|手机版|小黑屋|影迷乐园  

    GMT+8, 2020-4-4 03:57 , Processed in 0.144302 second(s), 32 queries .

    Powered by Discuz! X3.3

    © 2001-2017 Comsenz Inc.

    快速回复 返回顶部 返回列表