请选择 进入手机版 | 继续访问电脑版

YMLY-影迷乐园-特效字幕 蓝光原盘 1080P 高清动漫电影电视剧

 找回密码
 立即注册
搜索
查看: 425|回复: 5

[瑞典] [百度][2020][1080P][卡莉法.S01][瑞典语简繁多国字幕][MKV][10.39GB][Caliphate.S01.1080p.NF.WEB-DL.x265.HEVC.10bit.AAC5.1-Silence]

[复制链接]
  • TA的每日心情
    慵懒
    11 小时前
  • 签到天数: 604 天

    [LV.9]以坛为家II

    578

    主题

    1412

    帖子

    8889

    积分

    超级版主

    Rank: 16Rank: 16Rank: 16Rank: 16

    积分
    8889

    超版勋章版主勋章优秀版主土豪勋章小土豪勋章主题达人百分百好孩子最佳新人影迷男神富甲一方十二生肖之猴巨蟹座勋章

    发表于 2020-4-19 16:56:34 | 显示全部楼层 |阅读模式


    ◎译  名 卡莉法 / Caliphate
    ◎片  名 Kalifat
    ◎年  代 2020
    ◎产  地 瑞典
    ◎类  别 惊悚
    ◎语  言 瑞典语
    ◎上映日期 2020-01-12(瑞典)
    ◎IMDb评分  8.0/10 from 2428 users
    ◎IMDb链接  https://www.imdb.com/title/tt11398870
    ◎豆瓣评分 8.3/10 from 86 users
    ◎豆瓣链接 https://movie.douban.com/subject/34919076/
    ◎集  数 8
    ◎片  长 46分钟
    ◎导  演 Goran Kapetanović
    ◎编  剧 Wilhelm Behrman / Niklas Rockström
    ◎主  演 Gizem Erdogan
           Amed Bozan
           Aliette Opheim
           Albin Grenholm
           Nora Rios
           Amanda Sohrabi
           Lancelot Ncube
           William Legue
           Simon Mezher
           阿莱·里阿尼 Ala Riani


    ◎标  签 瑞典 | 瑞典剧 | Netflix | 惊悚 | 恐怖主义 | 2020 | Sweden | 反恐

    ◎简  介  

      伊斯兰国组织即将攻击瑞典,一群女子的命运就此纠葛交织,其中包括一名处境艰难的母亲,一个个性活泼的学生,以及一名志向远大的警察。
    1. General
    2. Unique ID                      : 334430519355463606652851913942417714801 (0xFB98F9A3B76F9070B93284FA8572AE71)
    3. Complete name                  : E:\影视\Caliphate (2020) Season 1 S01 (1080p NF WEB-DL x265 HEVC 10bit AAC 5.1 Swedish Silence)\Caliphate (2020) - S01E01 - Episode 1 (1080p NF WEB-DL x265 Silence).mkv
    4. Format                         : Matroska
    5. Format version                 : Version 4 / Version 2
    6. File size                      : 1.28 GiB
    7. Duration                       : 46 min 46 s
    8. Overall bit rate               : 3 912 kb/s
    9. Encoded date                   : UTC 2020-04-13 13:15:55
    10. Writing application            : mkvmerge v20.0.0 ('I Am The Sun') 64-bit
    11. Writing library                : libebml v1.3.5 + libmatroska v1.4.8
    12. Writing frontend               : StaxRip v1.7.0.6

    13. Video
    14. ID                             : 1
    15. Format                         : HEVC
    16. Format/Info                    : High Efficiency Video Coding
    17. Format profile                 : Main 10@L4@Main
    18. Codec ID                       : V_MPEGH/ISO/HEVC
    19. Duration                       : 46 min 46 s
    20. Bit rate                       : 3 498 kb/s
    21. Width                          : 1 920 pixels
    22. Height                         : 1 080 pixels
    23. Display aspect ratio           : 16:9
    24. Frame rate mode                : Constant
    25. Frame rate                     : 25.000 FPS
    26. Color space                    : YUV
    27. Chroma subsampling             : 4:2:0
    28. Bit depth                      : 10 bits
    29. Bits/(Pixel*Frame)             : 0.067
    30. Stream size                    : 1.14 GiB (89%)
    31. Writing library                : x265 3.2+22-a8a2c4c37267:[Windows][GCC 9.2.0][64 bit] 10bit
    32. Encoding settings              : cpuid=1111039 / frame-threads=4 / numa-pools=16 / wpp / no-pmode / no-pme / no-psnr / no-ssim / log-level=2 / input-csp=1 / input-res=1920x1080 / interlace=0 / total-frames=70159 / level-idc=0 / high-tier=1 / uhd-bd=0 / ref=5 / no-allow-non-conformance / no-repeat-headers / annexb / no-aud / no-hrd / info / hash=0 / no-temporal-layers / open-gop / min-keyint=25 / keyint=250 / gop-lookahead=0 / bframes=8 / b-adapt=2 / b-pyramid / bframe-bias=0 / rc-lookahead=80 / lookahead-slices=4 / scenecut=40 / hist-scenecut=0 / radl=0 / no-splice / no-intra-refresh / ctu=64 / min-cu-size=8 / no-rect / no-amp / max-tu-size=32 / tu-inter-depth=1 / tu-intra-depth=1 / limit-tu=0 / rdoq-level=2 / dynamic-rd=0.00 / no-ssim-rd / signhide / no-tskip / nr-intra=0 / nr-inter=0 / no-constrained-intra / no-strong-intra-smoothing / max-merge=3 / limit-refs=3 / limit-modes / me=3 / subme=5 / merange=57 / temporal-mvp / no-frame-dup / no-hme / weightp / no-weightb / no-analyze-src-pics / deblock=-3:-3 / no-sao / no-sao-non-deblock / rd=4 / selective-sao=0 / no-early-skip / rskip / no-fast-intra / no-tskip-fast / no-cu-lossless / no-b-intra / no-splitrd-skip / rdpenalty=0 / psy-rd=2.00 / psy-rdoq=1.00 / no-rd-refine / no-lossless / cbqpoffs=0 / crqpoffs=0 / rc=abr / bitrate=3500 / qcomp=0.60 / qpstep=4 / stats-write=0 / stats-read=2 / cplxblur=20.0 / qblur=0.5 / ipratio=1.40 / pbratio=1.30 / aq-mode=3 / aq-strength=1.00 / cutree / zone-count=0 / no-strict-cbr / qg-size=32 / no-rc-grain / qpmax=69 / qpmin=0 / no-const-vbv / sar=0 / overscan=0 / videoformat=5 / range=0 / colorprim=2 / transfer=2 / colormatrix=2 / chromaloc=0 / display-window=0 / cll=0,0 / min-luma=0 / max-luma=1023 / log2-max-poc-lsb=8 / vui-timing-info / vui-hrd-info / slices=1 / no-opt-qp-pps / no-opt-ref-list-length-pps / no-multi-pass-opt-rps / scenecut-bias=0.05 / hist-threshold=0.01 / no-opt-cu-delta-qp / no-aq-motion / no-hdr / no-hdr-opt / no-dhdr10-opt / no-idr-recovery-sei / analysis-reuse-level=5 / scale-factor=0 / refine-intra=0 / refine-inter=0 / refine-mv=1 / refine-ctu-distortion=0 / no-limit-sao / ctu-info=0 / no-lowpass-dct / refine-analysis-type=0 / copy-pic=1 / max-ausize-factor=1.0 / no-dynamic-refine / no-single-sei / no-hevc-aq / no-svt / no-field / qp-adaptation-range=1.00 / no-scenecut-aware-qp
    33. Default                        : Yes
    34. Forced                         : No

    35. Audio
    36. ID                             : 2
    37. Format                         : AAC
    38. Format/Info                    : Advanced Audio Codec
    39. Format profile                 : LC
    40. Codec ID                       : A_AAC-2
    41. Duration                       : 46 min 46 s
    42. Bit rate                       : 407 kb/s
    43. Channel(s)                     : 6 channels
    44. Channel positions              : Front: L C R, Side: L R, LFE
    45. Sampling rate                  : 48.0 kHz
    46. Frame rate                     : 46.875 FPS (1024 SPF)
    47. Compression mode               : Lossy
    48. Delay relative to video        : 20 ms
    49. Stream size                    : 136 MiB (10%)
    50. Language                       : Swedish
    51. Default                        : Yes
    52. Forced                         : No

    53. Text #1
    54. ID                             : 3
    55. Format                         : UTF-8
    56. Codec ID                       : S_TEXT/UTF8
    57. Codec ID/Info                  : UTF-8 Plain Text
    58. Duration                       : 43 min 12 s
    59. Bit rate                       : 60 b/s
    60. Count of elements              : 488
    61. Stream size                    : 19.2 KiB (0%)
    62. Language                       : English
    63. Default                        : No
    64. Forced                         : No

    65. Text #2
    66. ID                             : 4
    67. Format                         : UTF-8
    68. Codec ID                       : S_TEXT/UTF8
    69. Codec ID/Info                  : UTF-8 Plain Text
    70. Duration                       : 43 min 19 s
    71. Bit rate                       : 102 b/s
    72. Count of elements              : 682
    73. Stream size                    : 32.5 KiB (0%)
    74. Language                       : Arabic
    75. Default                        : No
    76. Forced                         : No

    77. Text #3
    78. ID                             : 5
    79. Format                         : UTF-8
    80. Codec ID                       : S_TEXT/UTF8
    81. Codec ID/Info                  : UTF-8 Plain Text
    82. Duration                       : 43 min 13 s
    83. Bit rate                       : 83 b/s
    84. Count of elements              : 849
    85. Stream size                    : 26.5 KiB (0%)
    86. Language                       : English
    87. Default                        : No
    88. Forced                         : No

    89. Text #4
    90. ID                             : 6
    91. Format                         : UTF-8
    92. Codec ID                       : S_TEXT/UTF8
    93. Codec ID/Info                  : UTF-8 Plain Text
    94. Duration                       : 43 min 19 s
    95. Bit rate                       : 68 b/s
    96. Count of elements              : 741
    97. Stream size                    : 21.6 KiB (0%)
    98. Language                       : Chinese
    99. Default                        : No
    100. Forced                         : No

    101. Text #5
    102. ID                             : 7
    103. Format                         : UTF-8
    104. Codec ID                       : S_TEXT/UTF8
    105. Codec ID/Info                  : UTF-8 Plain Text
    106. Duration                       : 43 min 19 s
    107. Bit rate                       : 69 b/s
    108. Count of elements              : 741
    109. Stream size                    : 22.1 KiB (0%)
    110. Language                       : Chinese
    111. Default                        : No
    112. Forced                         : No

    113. Text #6
    114. ID                             : 8
    115. Format                         : UTF-8
    116. Codec ID                       : S_TEXT/UTF8
    117. Codec ID/Info                  : UTF-8 Plain Text
    118. Duration                       : 43 min 19 s
    119. Bit rate                       : 57 b/s
    120. Count of elements              : 736
    121. Stream size                    : 18.4 KiB (0%)
    122. Language                       : Czech
    123. Default                        : No
    124. Forced                         : No

    125. Text #7
    126. ID                             : 9
    127. Format                         : UTF-8
    128. Codec ID                       : S_TEXT/UTF8
    129. Codec ID/Info                  : UTF-8 Plain Text
    130. Duration                       : 43 min 19 s
    131. Bit rate                       : 63 b/s
    132. Count of elements              : 730
    133. Stream size                    : 20.1 KiB (0%)
    134. Language                       : Danish
    135. Default                        : No
    136. Forced                         : No

    137. Text #8
    138. ID                             : 10
    139. Format                         : UTF-8
    140. Codec ID                       : S_TEXT/UTF8
    141. Codec ID/Info                  : UTF-8 Plain Text
    142. Duration                       : 43 min 19 s
    143. Bit rate                       : 60 b/s
    144. Count of elements              : 734
    145. Stream size                    : 19.1 KiB (0%)
    146. Language                       : Dutch
    147. Default                        : No
    148. Forced                         : No

    149. Text #9
    150. ID                             : 11
    151. Format                         : UTF-8
    152. Codec ID                       : S_TEXT/UTF8
    153. Codec ID/Info                  : UTF-8 Plain Text
    154. Duration                       : 43 min 19 s
    155. Bit rate                       : 67 b/s
    156. Count of elements              : 737
    157. Stream size                    : 21.3 KiB (0%)
    158. Language                       : Finnish
    159. Default                        : No
    160. Forced                         : No

    161. Text #10
    162. ID                             : 12
    163. Format                         : UTF-8
    164. Codec ID                       : S_TEXT/UTF8
    165. Codec ID/Info                  : UTF-8 Plain Text
    166. Duration                       : 43 min 19 s
    167. Bit rate                       : 65 b/s
    168. Count of elements              : 733
    169. Stream size                    : 20.8 KiB (0%)
    170. Language                       : French
    171. Default                        : No
    172. Forced                         : No

    173. Text #11
    174. ID                             : 13
    175. Format                         : UTF-8
    176. Codec ID                       : S_TEXT/UTF8
    177. Codec ID/Info                  : UTF-8 Plain Text
    178. Duration                       : 43 min 19 s
    179. Bit rate                       : 64 b/s
    180. Count of elements              : 734
    181. Stream size                    : 20.5 KiB (0%)
    182. Language                       : German
    183. Default                        : No
    184. Forced                         : No

    185. Text #12
    186. ID                             : 14
    187. Format                         : UTF-8
    188. Codec ID                       : S_TEXT/UTF8
    189. Codec ID/Info                  : UTF-8 Plain Text
    190. Duration                       : 43 min 19 s
    191. Bit rate                       : 103 b/s
    192. Count of elements              : 739
    193. Stream size                    : 32.9 KiB (0%)
    194. Language                       : Greek
    195. Default                        : No
    196. Forced                         : No

    197. Text #13
    198. ID                             : 15
    199. Format                         : UTF-8
    200. Codec ID                       : S_TEXT/UTF8
    201. Codec ID/Info                  : UTF-8 Plain Text
    202. Duration                       : 43 min 19 s
    203. Bit rate                       : 89 b/s
    204. Count of elements              : 739
    205. Stream size                    : 28.4 KiB (0%)
    206. Language                       : Hebrew
    207. Default                        : No
    208. Forced                         : No

    209. Text #14
    210. ID                             : 16
    211. Format                         : UTF-8
    212. Codec ID                       : S_TEXT/UTF8
    213. Codec ID/Info                  : UTF-8 Plain Text
    214. Duration                       : 43 min 19 s
    215. Bit rate                       : 64 b/s
    216. Count of elements              : 736
    217. Stream size                    : 20.4 KiB (0%)
    218. Language                       : Hungarian
    219. Default                        : No
    220. Forced                         : No

    221. Text #15
    222. ID                             : 17
    223. Format                         : UTF-8
    224. Codec ID                       : S_TEXT/UTF8
    225. Codec ID/Info                  : UTF-8 Plain Text
    226. Duration                       : 43 min 19 s
    227. Bit rate                       : 59 b/s
    228. Count of elements              : 736
    229. Stream size                    : 19.0 KiB (0%)
    230. Language                       : Indonesian
    231. Default                        : No
    232. Forced                         : No

    233. Text #16
    234. ID                             : 18
    235. Format                         : UTF-8
    236. Codec ID                       : S_TEXT/UTF8
    237. Codec ID/Info                  : UTF-8 Plain Text
    238. Duration                       : 43 min 19 s
    239. Bit rate                       : 64 b/s
    240. Count of elements              : 737
    241. Stream size                    : 20.5 KiB (0%)
    242. Language                       : Italian
    243. Default                        : No
    244. Forced                         : No

    245. Text #17
    246. ID                             : 19
    247. Format                         : UTF-8
    248. Codec ID                       : S_TEXT/UTF8
    249. Codec ID/Info                  : UTF-8 Plain Text
    250. Duration                       : 43 min 20 s
    251. Bit rate                       : 61 b/s
    252. Count of elements              : 660
    253. Stream size                    : 19.6 KiB (0%)
    254. Language                       : Japanese
    255. Default                        : No
    256. Forced                         : No

    257. Text #18
    258. ID                             : 20
    259. Format                         : UTF-8
    260. Codec ID                       : S_TEXT/UTF8
    261. Codec ID/Info                  : UTF-8 Plain Text
    262. Duration                       : 43 min 19 s
    263. Bit rate                       : 80 b/s
    264. Count of elements              : 732
    265. Stream size                    : 25.5 KiB (0%)
    266. Language                       : Korean
    267. Default                        : No
    268. Forced                         : No

    269. Text #19
    270. ID                             : 21
    271. Format                         : UTF-8
    272. Codec ID                       : S_TEXT/UTF8
    273. Codec ID/Info                  : UTF-8 Plain Text
    274. Duration                       : 43 min 19 s
    275. Bit rate                       : 57 b/s
    276. Count of elements              : 725
    277. Stream size                    : 18.3 KiB (0%)
    278. Language                       : Polish
    279. Default                        : No
    280. Forced                         : No

    281. Text #20
    282. ID                             : 22
    283. Format                         : UTF-8
    284. Codec ID                       : S_TEXT/UTF8
    285. Codec ID/Info                  : UTF-8 Plain Text
    286. Duration                       : 43 min 19 s
    287. Bit rate                       : 64 b/s
    288. Count of elements              : 734
    289. Stream size                    : 20.4 KiB (0%)
    290. Language                       : Portuguese
    291. Default                        : No
    292. Forced                         : No

    293. Text #21
    294. ID                             : 23
    295. Format                         : UTF-8
    296. Codec ID                       : S_TEXT/UTF8
    297. Codec ID/Info                  : UTF-8 Plain Text
    298. Duration                       : 43 min 19 s
    299. Bit rate                       : 60 b/s
    300. Count of elements              : 734
    301. Stream size                    : 19.1 KiB (0%)
    302. Language                       : Portuguese
    303. Default                        : No
    304. Forced                         : No

    305. Text #22
    306. ID                             : 24
    307. Format                         : UTF-8
    308. Codec ID                       : S_TEXT/UTF8
    309. Codec ID/Info                  : UTF-8 Plain Text
    310. Duration                       : 43 min 19 s
    311. Bit rate                       : 72 b/s
    312. Count of elements              : 736
    313. Stream size                    : 23.1 KiB (0%)
    314. Language                       : Romanian
    315. Default                        : No
    316. Forced                         : No

    317. Text #23
    318. ID                             : 25
    319. Format                         : UTF-8
    320. Codec ID                       : S_TEXT/UTF8
    321. Codec ID/Info                  : UTF-8 Plain Text
    322. Duration                       : 43 min 20 s
    323. Bit rate                       : 98 b/s
    324. Count of elements              : 739
    325. Stream size                    : 31.2 KiB (0%)
    326. Language                       : Russian
    327. Default                        : No
    328. Forced                         : No

    329. Text #24
    330. ID                             : 26
    331. Format                         : UTF-8
    332. Codec ID                       : S_TEXT/UTF8
    333. Codec ID/Info                  : UTF-8 Plain Text
    334. Duration                       : 43 min 19 s
    335. Bit rate                       : 63 b/s
    336. Count of elements              : 733
    337. Stream size                    : 20.1 KiB (0%)
    338. Language                       : Spanish
    339. Default                        : No
    340. Forced                         : No

    341. Text #25
    342. ID                             : 27
    343. Format                         : UTF-8
    344. Codec ID                       : S_TEXT/UTF8
    345. Codec ID/Info                  : UTF-8 Plain Text
    346. Duration                       : 43 min 19 s
    347. Bit rate                       : 56 b/s
    348. Count of elements              : 736
    349. Stream size                    : 17.9 KiB (0%)
    350. Language                       : Spanish
    351. Default                        : No
    352. Forced                         : No

    353. Text #26
    354. ID                             : 28
    355. Format                         : UTF-8
    356. Codec ID                       : S_TEXT/UTF8
    357. Codec ID/Info                  : UTF-8 Plain Text
    358. Duration                       : 42 min 50 s
    359. Bit rate                       : 74 b/s
    360. Count of elements              : 571
    361. Stream size                    : 23.5 KiB (0%)
    362. Language                       : Swedish
    363. Default                        : No
    364. Forced                         : No

    365. Text #27
    366. ID                             : 29
    367. Format                         : UTF-8
    368. Codec ID                       : S_TEXT/UTF8
    369. Codec ID/Info                  : UTF-8 Plain Text
    370. Duration                       : 43 min 19 s
    371. Bit rate                       : 172 b/s
    372. Count of elements              : 740
    373. Stream size                    : 54.7 KiB (0%)
    374. Language                       : Thai
    375. Default                        : No
    376. Forced                         : No

    377. Text #28
    378. ID                             : 30
    379. Format                         : UTF-8
    380. Codec ID                       : S_TEXT/UTF8
    381. Codec ID/Info                  : UTF-8 Plain Text
    382. Duration                       : 43 min 19 s
    383. Bit rate                       : 63 b/s
    384. Count of elements              : 736
    385. Stream size                    : 20.3 KiB (0%)
    386. Language                       : Turkish
    387. Default                        : No
    388. Forced                         : No

    389. Text #29
    390. ID                             : 31
    391. Format                         : UTF-8
    392. Codec ID                       : S_TEXT/UTF8
    393. Codec ID/Info                  : UTF-8 Plain Text
    394. Duration                       : 43 min 19 s
    395. Bit rate                       : 93 b/s
    396. Count of elements              : 736
    397. Stream size                    : 29.6 KiB (0%)
    398. Language                       : Vietnamese
    399. Default                        : No
    400. Forced                         : No

    复制代码



    购买主题 已有 1 人购买  本主题需向作者支付 20 大洋 才能浏览
    回复

    使用道具 举报

  • TA的每日心情
    开心
    1 小时前
  • 签到天数: 320 天

    [LV.8]以坛为家I

    5

    主题

    2367

    帖子

    264

    积分

    超级影迷

    Rank: 6Rank: 6

    积分
    264
    发表于 2020-4-19 23:46:53 | 显示全部楼层
    好资源 支持
    回复

    使用道具 举报

  • TA的每日心情
    郁闷
    2021-1-4 16:22
  • 签到天数: 164 天

    [LV.7]常住居民III

    0

    主题

    387

    帖子

    45

    积分

    初级影迷

    Rank: 2

    积分
    45
    发表于 2020-4-20 11:02:39 | 显示全部楼层
    好像双重人格差不多
    回复

    使用道具 举报

  • TA的每日心情
    难过
    2020-6-27 09:02
  • 签到天数: 59 天

    [LV.5]常住居民I

    0

    主题

    173

    帖子

    95

    积分

    中级影迷

    Rank: 3Rank: 3

    积分
    95
    发表于 2020-4-22 10:06:32 | 显示全部楼层
    感谢分享。
    回复

    使用道具 举报

  • TA的每日心情
    开心
    2021-1-21 20:58
  • 签到天数: 159 天

    [LV.7]常住居民III

    6

    主题

    2209

    帖子

    121

    积分

    中级影迷

    Rank: 3Rank: 3

    积分
    121
    QQ
    发表于 2020-4-23 14:11:07 | 显示全部楼层
    谢谢分享好资源
    回复

    使用道具 举报

  • TA的每日心情
    开心
    7 天前
  • 签到天数: 29 天

    [LV.4]偶尔看看III

    28

    主题

    2799

    帖子

    178

    积分

    ★★VIP6★★

    Rank: 22Rank: 22Rank: 22Rank: 22Rank: 22Rank: 22

    积分
    178
    发表于 2020-6-27 17:11:28 | 显示全部楼层
    爱你么么哒
    回复

    使用道具 举报

    您需要登录后才可以回帖 登录 | 立即注册

    本版积分规则

    QQ|Archiver|手机版|小黑屋|影迷乐园

    GMT+8, 2021-3-9 13:08 , Processed in 0.079799 second(s), 30 queries .

    Powered by Discuz! X3.4

    Copyright © 2001-2020, Tencent Cloud.

    快速回复 返回顶部 返回列表