请选择 进入手机版 | 继续访问电脑版

YMLY-影迷乐园-特效字幕 蓝光原盘 1080P 高清动漫电影电视剧

 找回密码
 立即注册
搜索
查看: 2505|回复: 61

[美国] [115+百度][2004-2012][1080P][太空堡垒卡拉狄加.S01-S04+迷你剧+剧场版+前传][英语内封中上英下ASS&简中SRT][78集全][MKV][135.19GB][Battlestar.Galactica.S01.2004-2012.1080p.Blu-ray.x265.10bit.AC3£cXcY@FRDS]

  [复制链接]
  • TA的每日心情
    开心
    2020-7-14 10:46
  • 签到天数: 22 天

    [LV.4]偶尔看看III

    61

    主题

    95

    帖子

    681

    积分

    专业影迷

    Rank: 8Rank: 8

    积分
    681

    小土豪勋章

    发表于 2020-4-20 17:37:26 | 显示全部楼层 |阅读模式

    若链结失效 可站内信给我 收到信息会立即处理
    转载自FRDS,感谢压制和原发布人员
    之前漏了s04e08,经热心版友告知,原连结已补上s04e08
    之前下载缺此集的版友可以补保存
    观看顺序
    迷你剧上下集 (有点忘记顺序,有错请指正)
    第一季
    第二季
    第二季
    第三季
    利刃(Razor)
    第四季
    电影:计划(The Plan)
    血与铬是前传



    ◎译  名 太空堡垒卡拉狄加  第一季 / 太空堡垒卡拉狄加 第一季 / 星际大争霸 第一季 / 银河对决 第一季 / 银河战星卡拉迪加 第一季
    ◎片  名 Battlestar Galactica Season 1
    ◎年  代 2004
    ◎产  地 美国 / 英国 / 加拿大
    ◎类  别 科幻
    ◎语  言 英语
    ◎上映日期 2004-10-18
    ◎IMDb评分  8.7/10 from 146361 users
    ◎IMDb链接  https://www.imdb.com/title/tt0407362
    ◎豆瓣评分 8.8/10 from 6493 users
    ◎豆瓣链接 https://movie.douban.com/subject/3581476/
    ◎集  数 13
    ◎片  长 44min
    ◎导  演 Marita Grabiak
    ◎编  剧 Glen A. Larson / 罗纳德·D· 摩尔 Ronald D. Moore / Christopher Eric
    ◎主  演 吉米·巴姆博 Jamie Bamber
           Matthew Bennett
           詹姆斯·卡利斯 James Callis
           保罗·坎贝尔 Paul Campbell
           翠西亚·希弗 Tricia Helfer
           爱德华·詹姆斯·奥莫斯 Edward James Olmos
           朴敏庆 Grace Park
           妮基·克莱因 Nicki Clyne


    ◎标  签 SyFy | 科幻 | 美剧 | 太空堡垒 | 美国 | BattlestarGalactica | 电视剧 | 看过的电视剧

    ◎简  介  

      《太空堡垒卡拉狄加》(Battlestar Galactica)于2003年12月8日在美国科幻频道上开播迷你剧 ,之后在2004年10月18日于英国Sky One电视频道上首播第1季。该剧目前已获得包括2006年3项土星奖在内的7项各类大奖,包括5项艾美奖提名在内的11项各类提名,在收视率方面也成为美国科幻频道有史以来最受欢迎的原创剧集。该剧主要叙述的是人类和塞昂人之间的战争,及幸存的五万人类寻找新的家园地球的故事。
      在宇宙中未知的地方有一个由12个人类殖民地组成的星际国家,人类为了方便制造了一种拥有独立思想及感觉的机器人-Cylons为人类服务,但人们怎样也想不到这些本应是帮助人类的机器人竟会调转头对抗自已,Cylons起来反抗人类,人类与自已制造的Cylons之战争便开始...
      在经过数十年漫长、死伤无数的血战之后双方停火,Cylons离开了殖民地去建立自己的家园。40年的和平让人类放松了警惕,Cylons制造了一些与人类一模一样的机器人作间碟渗入人类世界并瘫痪了人类的防御系统,摧毁了Battlestar舰队,用核武器将殖民地的城市化为灰烬。Battlestar Galactica是唯一一艘幸存的航母,它在舰长Adama的指挥下带领几十艘各式各样的民船和近5万名人类仅剩的幸存者逃离了殖民地的星系,开始了寻找人类的第13个殖民地-地球-的旅程。

    手机截图





    1. General
    2. Unique ID                                : 209757406534107793239914421201370631188 (0x9DCDCE998661BBEE8D82116681C44C14)
    3. Complete name                            : Battlestar.Galactica.S01E01.2004.1080p.Blu-ray.x265.10bit.AC3£cXcY@FRDS.mkv
    4. Format                                   : Matroska
    5. Format version                           : Version 4 / Version 2
    6. File size                                : 1.53 GiB
    7. Duration                                 : 44 min 43 s
    8. Overall bit rate                         : 4 886 kb/s
    9. Movie name                               : cXcY@FRDS
    10. Encoded date                             : UTC 2020-04-10 03:44:10
    11. Writing application                      : mkvmerge v7.9.0 ('Birds') 32bit
    12. Writing library                          : libebml v1.3.1 + libmatroska v1.4.2

    13. Video
    14. ID                                       : 1
    15. Format                                   : HEVC
    16. Format/Info                              : High Efficiency Video Coding
    17. Format profile                           : Main 10@L4@Main
    18. Codec ID                                 : V_MPEGH/ISO/HEVC
    19. Duration                                 : 44 min 43 s
    20. Bit rate                                 : 4 500 kb/s
    21. Width                                    : 1 920 pixels
    22. Height                                   : 1 080 pixels
    23. Display aspect ratio                     : 16:9
    24. Frame rate mode                          : Constant
    25. Frame rate                               : 23.976 (24000/1001) FPS
    26. Color space                              : YUV
    27. Chroma subsampling                       : 4:2:0
    28. Bit depth                                : 10 bits
    29. Bits/(Pixel*Frame)                       : 0.091
    30. Stream size                              : 1.41 GiB (92%)
    31. Writing library                          : x265 3.0+1-ed72af837053:[Windows][GCC 8.2.0][64 bit] 10bit
    32. Encoding settings                        : cpuid=1111039 / frame-threads=3 / numa-pools=12 / wpp / no-pmode / no-pme / no-psnr / no-ssim / log-level=2 / input-csp=1 / input-res=1920x1080 / interlace=0 / total-frames=64344 / level-idc=0 / high-tier=1 / uhd-bd=0 / ref=4 / no-allow-non-conformance / no-repeat-headers / annexb / no-aud / no-hrd / info / hash=0 / no-temporal-layers / open-gop / min-keyint=23 / keyint=250 / gop-lookahead=0 / bframes=8 / b-adapt=2 / b-pyramid / bframe-bias=0 / rc-lookahead=80 / lookahead-slices=4 / scenecut=40 / radl=0 / no-splice / no-intra-refresh / ctu=64 / min-cu-size=8 / no-rect / no-amp / max-tu-size=32 / tu-inter-depth=1 / tu-intra-depth=1 / limit-tu=0 / rdoq-level=2 / dynamic-rd=0.00 / no-ssim-rd / signhide / no-tskip / nr-intra=0 / nr-inter=0 / no-constrained-intra / no-strong-intra-smoothing / max-merge=3 / limit-refs=3 / limit-modes / me=3 / subme=5 / merange=57 / temporal-mvp / weightp / weightb / no-analyze-src-pics / deblock=-3:-3 / no-sao / no-sao-non-deblock / rd=4 / no-early-skip / rskip / no-fast-intra / no-tskip-fast / no-cu-lossless / no-b-intra / no-splitrd-skip / rdpenalty=0 / psy-rd=2.00 / psy-rdoq=3.00 / no-rd-refine / no-lossless / cbqpoffs=0 / crqpoffs=0 / rc=abr / bitrate=4500 / qcomp=0.60 / qpstep=4 / stats-write=0 / stats-read=2 / cplxblur=20.0 / qblur=0.5 / ipratio=1.40 / pbratio=1.30 / aq-mode=3 / aq-strength=1.00 / cutree / zone-count=0 / no-strict-cbr / qg-size=32 / no-rc-grain / qpmax=69 / qpmin=0 / no-const-vbv / sar=0 / overscan=0 / videoformat=5 / range=0 / colorprim=2 / transfer=2 / colormatrix=2 / chromaloc=0 / display-window=0 / max-cll=0,0 / min-luma=0 / max-luma=1023 / log2-max-poc-lsb=8 / vui-timing-info / vui-hrd-info / slices=1 / no-opt-qp-pps / no-opt-ref-list-length-pps / no-multi-pass-opt-rps / scenecut-bias=0.05 / no-opt-cu-delta-qp / no-aq-motion / no-hdr / no-hdr-opt / no-dhdr10-opt / no-idr-recovery-sei / analysis-reuse-level=5 / scale-factor=0 / refine-intra=0 / refine-inter=0 / refine-mv=0 / refine-ctu-distortion=0 / no-limit-sao / ctu-info=0 / no-lowpass-dct / refine-analysis-type=0 / copy-pic=1 / max-ausize-factor=1.0 / no-dynamic-refine / no-single-sei / no-hevc-aq / qp-adaptation-range=1.00
    33. Default                                  : Yes
    34. Forced                                   : No

    35. Audio
    36. ID                                       : 2
    37. Format                                   : AC-3
    38. Format/Info                              : Audio Coding 3
    39. Codec ID                                 : A_AC3
    40. Duration                                 : 44 min 43 s
    41. Bit rate mode                            : Constant
    42. Bit rate                                 : 384 kb/s
    43. Channel(s)                               : 6 channels
    44. Channel positions                        : Front: L C R, Side: L R, LFE
    45. Sampling rate                            : 48.0 kHz
    46. Frame rate                               : 31.250 FPS (1536 SPF)
    47. Bit depth                                : 16 bits
    48. Compression mode                         : Lossy
    49. Stream size                              : 123 MiB (8%)
    50. Title                                    : Eng-DD5.1£cXcY
    51. Language                                 : English
    52. Service kind                             : Complete Main
    53. Default                                  : Yes
    54. Forced                                   : No

    55. Text #1
    56. ID                                       : 3
    57. Format                                   : ASS
    58. Codec ID                                 : S_TEXT/ASS
    59. Codec ID/Info                            : Advanced Sub Station Alpha
    60. Duration                                 : 43 min 26 s
    61. Bit rate                                 : 247 b/s
    62. Count of elements                        : 541
    63. Compression mode                         : Lossless
    64. Stream size                              : 78.6 KiB (0%)
    65. Title                                    : 中上英下-YYeTs字幕-ASS£cXcY
    66. Language                                 : Chinese
    67. Default                                  : Yes
    68. Forced                                   : No

    69. Text #2
    70. ID                                       : 4
    71. Format                                   : UTF-8
    72. Codec ID                                 : S_TEXT/UTF8
    73. Codec ID/Info                            : UTF-8 Plain Text
    74. Duration                                 : 43 min 26 s
    75. Bit rate                                 : 45 b/s
    76. Count of elements                        : 541
    77. Stream size                              : 14.4 KiB (0%)
    78. Title                                    : 简体中文-YYeTs字幕-SRT£cXcY
    79. Language                                 : Chinese
    80. Default                                  : No
    81. Forced                                   : No
    复制代码



    购买主题 已有 38 人购买  本主题需向作者支付 75 大洋 才能浏览
    回复

    使用道具 举报

  • TA的每日心情
    开心
    昨天 08:48
  • 签到天数: 370 天

    [LV.9]以坛为家II

    127

    主题

    1392

    帖子

    623

    积分

    专业影迷

    Rank: 8Rank: 8

    积分
    623
    发表于 2020-4-20 17:46:27 | 显示全部楼层
    感谢分享 看一下
    回复

    使用道具 举报

  • TA的每日心情
    擦汗
    昨天 21:44
  • 签到天数: 199 天

    [LV.7]常住居民III

    9

    主题

    271

    帖子

    399

    积分

    超级影迷

    Rank: 6Rank: 6

    积分
    399
    发表于 2020-4-20 18:35:52 | 显示全部楼层
    谢谢分享太空堡垒
    回复

    使用道具 举报

  • TA的每日心情
    开心
    2020-9-11 01:56
  • 签到天数: 53 天

    [LV.5]常住居民I

    0

    主题

    1443

    帖子

    111

    积分

    中级影迷

    Rank: 3Rank: 3

    积分
    111
    发表于 2020-4-20 18:43:15 | 显示全部楼层
    谢谢谢谢分享
    回复

    使用道具 举报

    该用户从未签到

    0

    主题

    304

    帖子

    141

    积分

    中级影迷

    Rank: 3Rank: 3

    积分
    141
    发表于 2020-4-20 21:05:52 | 显示全部楼层
    感谢分享 看一下
    回复

    使用道具 举报

  • TA的每日心情
    奋斗
    2020-5-29 07:31
  • 签到天数: 25 天

    [LV.4]偶尔看看III

    10

    主题

    2317

    帖子

    148

    积分

    ★★VIP6★★

    Rank: 22Rank: 22Rank: 22Rank: 22Rank: 22Rank: 22

    积分
    148
    发表于 2020-4-20 22:21:20 | 显示全部楼层
    爱你么么哒
    回复

    使用道具 举报

  • TA的每日心情
    奋斗
    2020-5-29 07:31
  • 签到天数: 25 天

    [LV.4]偶尔看看III

    10

    主题

    2317

    帖子

    148

    积分

    ★★VIP6★★

    Rank: 22Rank: 22Rank: 22Rank: 22Rank: 22Rank: 22

    积分
    148
    发表于 2020-4-20 22:22:40 | 显示全部楼层
    爱你么么哒
    回复

    使用道具 举报

  • TA的每日心情
    开心
    昨天 00:45
  • 签到天数: 236 天

    [LV.7]常住居民III

    6

    主题

    1971

    帖子

    449

    积分

    超级影迷

    Rank: 6Rank: 6

    积分
    449
    发表于 2020-4-20 23:02:00 | 显示全部楼层
    感谢分享。
    回复

    使用道具 举报

  • TA的每日心情
    开心
    3 小时前
  • 签到天数: 256 天

    [LV.8]以坛为家I

    39

    主题

    979

    帖子

    125

    积分

    中级影迷

    Rank: 3Rank: 3

    积分
    125
    发表于 2020-4-20 23:20:34 | 显示全部楼层
    精彩好剧,感谢分享
    回复

    使用道具 举报

  • TA的每日心情
    开心
    3 天前
  • 签到天数: 216 天

    [LV.7]常住居民III

    5

    主题

    2251

    帖子

    240

    积分

    高级影迷

    Rank: 4

    积分
    240
    发表于 2020-4-21 01:40:29 | 显示全部楼层
    好资源 支持
    回复

    使用道具 举报

    您需要登录后才可以回帖 登录 | 立即注册

    本版积分规则

    QQ|Archiver|手机版|小黑屋|影迷乐园

    GMT+8, 2020-9-28 03:01 , Processed in 0.169582 second(s), 29 queries .

    Powered by Discuz! X3.4

    Copyright © 2001-2020, Tencent Cloud.

    快速回复 返回顶部 返回列表