请选择 进入手机版 | 继续访问电脑版

YMLY-影迷乐园-特效字幕 蓝光原盘 1080P 高清动漫电影电视剧

 找回密码
 立即注册
搜索
查看: 3692|回复: 38

[日本] [磁力+百度][2006][1080P][死亡笔记][收藏版][1-37话全][台配.粤.日.英.德五语.简中字幕][23.94GB][MKV][BDrip1080P.X264.AC3.LGGZS]

[复制链接]
  • TA的每日心情
    无聊
    2019-4-24 08:53
  • 签到天数: 33 天

    [LV.5]常住居民I

    80

    主题

    128

    帖子

    741

    积分

    版主

    Rank: 8Rank: 8

    积分
    741

    贵族勋章水瓶座勋章

    发表于 2017-7-25 20:56:13 | 显示全部楼层 |阅读模式


    因有集数被和谐,2020.12.17重新补全打包上传,大家可放心购买~







    ◎译  名 死亡笔记/DeathNote
    ◎片  名 デスノート
    ◎年  代 2006
    ◎产  地 日本
    ◎类  别 动画/犯罪/剧情/奇幻/悬疑/惊悚
    ◎语  言 日语
    ◎上映日期 2006-10-03(日本)
    ◎豆瓣评分 9.0/10 from 50,710 users
    ◎豆瓣链接 https://movie.douban.com/subject/1916936/
    ◎片  长 22 分钟(37 episodes)
    ◎导  演 荒木哲郎 Tetsuro Araki
    ◎主  演 宫野真守 Mamoru Miyano
          山口胜平 Kappei Yamaguchi
          平野绫 Aya Hirano
          中村狮童 Shido Nakamura
          内田直哉 Naoya Uchida
          中井和哉 Kazuya Nakai

    ◎简  介

      "名字被写在这个笔记本上的人会死"
      死神琉可拥有这样的死神笔记本,却将它遗失在人间。天才高中生夜神月捡到这本笔记本,本以为是恶作剧的他,在笔记本上写下了电视中播放的罪犯的名字,确认了笔记本能力的真实性。厌倦腐朽世界的夜神月使用笔记本的力量,开始杀死犯罪者,以此希望建立一个没有犯罪的美好理想世界,而自己成为“新世界的神”。
      连续罪犯死亡事件,吸引了全世界警察的目光,更吸引了世界第一名侦探L的注意,L能否将被崇拜者称为“基拉”的夜神月逮捕?
      一本死神的笔记本,拉开了天才与天才之间卓越巅峰的头脑战争的序幕。本已对人间失去兴趣的琉可,在旁观惊心动魄的斗智过程中感叹“人类,真有趣。”
    1. General
    2. Format                         : Matroska
    3. Format version                 : Version 4
    4. File size                      : 656 MiB
    5. Duration                       : 22 min 58 s
    6. Overall bit rate               : 3 993 kb/s
    7. Movie name                     : www.lggzs.com
    8. Encoded date                   : UTC 2017-05-29 13:57:54
    9. Writing application            : mkvmerge v6.5.0 ('Isn't she lovely') built on Oct 20 2013 12:50:05
    10. Writing library                : libebml v1.3.0 + libmatroska v1.4.1

    11. Video
    12. ID                             : 1
    13. Format                         : AVC
    14. Format/Info                    : Advanced Video Codec
    15. Format profile                 : High@L4.1
    16. Format settings                : CABAC / 4 Ref Frames
    17. Format settings, CABAC         : Yes
    18. Format settings, Reference fra : 4 frames
    19. Codec ID                       : V_MPEG4/ISO/AVC
    20. Duration                       : 22 min 58 s
    21. Width                          : 1 920 pixels
    22. Height                         : 1 080 pixels
    23. Display aspect ratio           : 16:9
    24. Frame rate mode                : Constant
    25. Frame rate                     : 23.976 (23976/1000) FPS
    26. Color space                    : YUV
    27. Chroma subsampling             : 4:2:0
    28. Bit depth                      : 8 bits
    29. Scan type                      : Progressive
    30. Default                        : Yes
    31. Forced                         : No

    32. Audio #1
    33. ID                             : 3
    34. Format                         : AC-3
    35. Format/Info                    : Audio Coding 3
    36. Commercial name                : Dolby Digital
    37. Codec ID                       : A_AC3
    38. Duration                       : 22 min 58 s
    39. Bit rate mode                  : Constant
    40. Bit rate                       : 448 kb/s
    41. Channel(s)                     : 2 channels
    42. Channel layout                 : L R
    43. Sampling rate                  : 48.0 kHz
    44. Frame rate                     : 31.250 FPS (1536 SPF)
    45. Bit depth                      : 16 bits
    46. Compression mode               : Lossy
    47. Stream size                    : 73.6 MiB (11%)
    48. Language                       : Chinese
    49. Service kind                   : Complete Main
    50. Default                        : No
    51. Forced                         : No

    52. Audio #2
    53. ID                             : 4
    54. Format                         : AC-3
    55. Format/Info                    : Audio Coding 3
    56. Commercial name                : Dolby Digital
    57. Codec ID                       : A_AC3
    58. Duration                       : 22 min 58 s
    59. Bit rate mode                  : Constant
    60. Bit rate                       : 256 kb/s
    61. Channel(s)                     : 2 channels
    62. Channel layout                 : L R
    63. Sampling rate                  : 48.0 kHz
    64. Frame rate                     : 31.250 FPS (1536 SPF)
    65. Bit depth                      : 16 bits
    66. Compression mode               : Lossy
    67. Stream size                    : 42.1 MiB (6%)
    68. Language                       : Chinese
    69. Service kind                   : Complete Main
    70. Default                        : Yes
    71. Forced                         : No

    72. Audio #3
    73. ID                             : 5
    74. Format                         : AC-3
    75. Format/Info                    : Audio Coding 3
    76. Commercial name                : Dolby Digital
    77. Codec ID                       : A_AC3
    78. Duration                       : 22 min 58 s
    79. Bit rate mode                  : Constant
    80. Bit rate                       : 128 kb/s
    81. Channel(s)                     : 2 channels
    82. Channel layout                 : L R
    83. Sampling rate                  : 48.0 kHz
    84. Frame rate                     : 31.250 FPS (1536 SPF)
    85. Bit depth                      : 16 bits
    86. Compression mode               : Lossy
    87. Stream size                    : 21.0 MiB (3%)
    88. Language                       : Japanese
    89. Service kind                   : Complete Main
    90. Default                        : No
    91. Forced                         : No

    92. Audio #4
    93. ID                             : 6
    94. Format                         : AC-3
    95. Format/Info                    : Audio Coding 3
    96. Commercial name                : Dolby Digital
    97. Codec ID                       : A_AC3
    98. Duration                       : 22 min 58 s
    99. Bit rate mode                  : Constant
    100. Bit rate                       : 128 kb/s
    101. Channel(s)                     : 2 channels
    102. Channel layout                 : L R
    103. Sampling rate                  : 48.0 kHz
    104. Frame rate                     : 31.250 FPS (1536 SPF)
    105. Bit depth                      : 16 bits
    106. Compression mode               : Lossy
    107. Stream size                    : 21.0 MiB (3%)
    108. Language                       : English
    109. Service kind                   : Complete Main
    110. Default                        : No
    111. Forced                         : No

    112. Audio #5
    113. ID                             : 7
    114. Format                         : AAC LC
    115. Format/Info                    : Advanced Audio Codec Low Complexity
    116. Codec ID                       : A_AAC-2
    117. Duration                       : 22 min 58 s
    118. Channel(s)                     : 2 channels
    119. Channel layout                 : L R
    120. Sampling rate                  : 48.0 kHz
    121. Frame rate                     : 46.875 FPS (1024 SPF)
    122. Compression mode               : Lossy
    123. Language                       : German
    124. Default                        : No
    125. Forced                         : No

    126. Text
    127. ID                             : 2
    128. Format                         : SSA
    129. Codec ID                       : S_TEXT/SSA
    130. Codec ID/Info                  : Sub Station Alpha
    131. Compression mode               : Lossless
    132. Default                        : Yes
    133. Forced                         : No
    复制代码





    购买主题 已有 25 人购买  本主题需向作者支付 50 大洋 才能浏览
    回复

    使用道具 举报

  • TA的每日心情
    开心
    前天 15:32
  • 签到天数: 34 天

    [LV.5]常住居民I

    0

    主题

    286

    帖子

    70

    积分

    中级影迷

    Rank: 3Rank: 3

    积分
    70
    发表于 2019-10-9 16:54:09 | 显示全部楼层
    怎么有两部...
    回复

    使用道具 举报

  • TA的每日心情

    7 天前
  • 签到天数: 69 天

    [LV.6]常住居民II

    0

    主题

    192

    帖子

    72

    积分

    中级影迷

    Rank: 3Rank: 3

    积分
    72
    发表于 2020-2-1 23:14:46 | 显示全部楼层
    谢谢大佬分享
    回复

    使用道具 举报

  • TA的每日心情
    开心
    2020-7-18 23:01
  • 签到天数: 84 天

    [LV.6]常住居民II

    40

    主题

    353

    帖子

    355

    积分

    超级影迷

    Rank: 6Rank: 6

    积分
    355
    发表于 2020-3-14 20:01:10 | 显示全部楼层
    谢谢分享啊
    回复

    使用道具 举报

  • TA的每日心情
    难过
    2020-4-2 22:57
  • 签到天数: 1 天

    [LV.1]初来乍到

    0

    主题

    7

    帖子

    25

    积分

    初级影迷

    Rank: 2

    积分
    25
    发表于 2020-5-1 02:43:37 | 显示全部楼层
    这个有点吸引力哦,谢谢分享。
    回复

    使用道具 举报

    该用户从未签到

    0

    主题

    11

    帖子

    13

    积分

    入门影迷

    Rank: 1

    积分
    13
    发表于 2020-5-1 15:44:22 | 显示全部楼层
    感谢大佬分析
    回复

    使用道具 举报

  • TA的每日心情
    难过
    2020-9-28 23:29
  • 签到天数: 67 天

    [LV.6]常住居民II

    0

    主题

    322

    帖子

    24

    积分

    入门影迷

    Rank: 1

    积分
    24
    发表于 2020-5-3 00:30:35 | 显示全部楼层
    谢谢大佬分享
    回复

    使用道具 举报

  • TA的每日心情
    开心
    2020-9-20 15:47
  • 签到天数: 10 天

    [LV.3]偶尔看看II

    0

    主题

    175

    帖子

    235

    积分

    高级影迷

    Rank: 4

    积分
    235
    发表于 2020-5-9 15:37:15 | 显示全部楼层
    谢谢分享~~~
    回复

    使用道具 举报

  • TA的每日心情
    开心
    2020-7-18 15:58
  • 签到天数: 18 天

    [LV.4]偶尔看看III

    0

    主题

    50

    帖子

    5

    积分

    入门影迷

    Rank: 1

    积分
    5
    发表于 2020-6-8 07:42:41 | 显示全部楼层
    值得收藏的经典~~~~~~~~~~~~~~~~~~~~~~~~~~~~~~~~~~~~
    回复

    使用道具 举报

  • TA的每日心情
    开心
    2020-7-18 15:58
  • 签到天数: 18 天

    [LV.4]偶尔看看III

    0

    主题

    50

    帖子

    5

    积分

    入门影迷

    Rank: 1

    积分
    5
    发表于 2020-6-8 10:43:19 | 显示全部楼层
    为什么是PDF格式的?
    回复

    使用道具 举报

    您需要登录后才可以回帖 登录 | 立即注册

    本版积分规则

    QQ|Archiver|手机版|小黑屋|影迷乐园

    GMT+8, 2021-3-9 12:39 , Processed in 0.060754 second(s), 27 queries .

    Powered by Discuz! X3.4

    Copyright © 2001-2020, Tencent Cloud.

    快速回复 返回顶部 返回列表