请选择 进入手机版 | 继续访问电脑版

YMLY-影迷乐园-特效字幕 蓝光原盘 1080P 高清动漫电影电视剧

 找回密码
 立即注册
搜索
查看: 105|回复: 7

[美国] [百度][2017-2018][1080P][小谢尔顿S01-02][内封中英][MKV][18.63GB][Young.Sheldon.S1-2.HEVC.10bit-GHFLY]

[复制链接]
  • TA的每日心情
    开心
    14 小时前
  • 签到天数: 41 天

    [LV.5]常住居民I

    5

    主题

    118

    帖子

    35

    积分

    初级影迷

    Rank: 2

    积分
    35
    发表于 2020-5-20 13:01:54 | 显示全部楼层 |阅读模式
    论坛还没有人发小谢尔顿H265资源,我也来发帖试试,初次发帖,如有问题请在评论区指出,失效问题最好直接私信。





    ◎译  名 小谢尔顿 / Sheldon / 小小谢尔顿 / 少年谢尔顿 / 少年谢耳朵 / 谢尔顿
    ◎片  名 Young Sheldon Season 1
    ◎年  代 2017
    ◎产  地 美国
    ◎类  别 喜剧
    ◎语  言 英语
    ◎上映日期 2017-09-25(美国)
    ◎IMDb评分  7.4/10 from 28471 users
    ◎IMDb链接  https://www.imdb.com/title/tt6226232
    ◎豆瓣评分 9.2/10 from 69243 users
    ◎豆瓣链接 https://movie.douban.com/subject/26910060/
    ◎集  数 22
    ◎片  长 20分钟
    ◎导  演 乔恩·费儒 Jon Favreau / 迈克尔·津伯格 Michael Zinberg / Jaffar Mahmood
    ◎编  剧 查克·罗瑞 Chuck Lorre / Steven Molaro
    ◎主  演 伊恩·阿米蒂奇 Iain Armitage
           佐伊·派瑞 Zoe Perry
           兰斯·巴伯 Lance Barber
           吉姆·帕森斯 Jim Parsons
           怀亚特·麦克卢尔 Wyatt McClure
           拉根·雷沃德 Raegan Revord
           鲍勃·纽哈特 Bob Newhart
           蒙塔纳·乔丹 Montana Jordan
           安妮·波茨 Annie Potts
           维勒莉·玛哈菲 Valerie Mahaffey
           瑞克斯·林恩 Rex Linn
           布赖恩·斯特帕尼克 Brian Stepanek
           梅丽莎·唐 Melissa Tang


    ◎标  签 美剧 | 喜剧 | 谢耳朵 | 生活大爆炸衍生剧 | 美国 | 家庭 | 儿童 | 衍生剧

    ◎简  介  

      CBS在新喜剧上表现无力下把歪脑筋动到《生活大爆炸 The Big Bang Theory》的Sheldon身上,早前他们宣布开发《生活大爆炸》衍生前传剧,現CBS确定预订命名为《小谢尔顿 Young Sheldon》的衍生剧,顾名思义就是以Sheldon Cooper 为主角。该剧定于17-18年度播出。
      这部喜剧主角不是Sheldon成年版,而是以他9岁时为背景,剧集也会以《马尔柯姆的一家 Malcolm in the Middle》的单镜头家庭喜剧方式制作,讲述Sheldon当年在德州东部的家庭及学校生活。Chuck Lorre与Bill Prady为主创兼执行制片﹑Steve Molaro﹑Todd Spiewak与在《生活大爆炸》饰演Sheldon的Jim Parsons为制作人兼执行制片。
      在过往剧情中,可得知Sheldon的家人包括哥哥George﹑异卵双胞胎姐妹Missy﹑有宗教信仰的妈妈Mary Cooper,以及酗酒的爸爸George Cooper。另外Sheldon还有外婆(Meemaw)及外公(Pop Pop),外公在Sheldon 5岁时去世。
      该剧由Jon Favreau执导, Iain Armitage将饰演年轻版的Sheldon Cooper﹑ Zoe Perry饰演其母亲Mary Cooper﹑Lance Barber饰演Sheldon的父亲﹑Raegan Revord及Montana Jordan饰演Sheldon的兄妹(姐?)﹑Annie Potts饰演外婆。

    1. General
    2. Unique ID                      : 231741961556476742802397235988864501325 (0xAE57E0D9235E9F72C14304381F4D064D)
    3. Complete name                  : D:\BaiduNetdiskDownload\Young.Sheldon.S01E01.Pilot.1080p.HEVC.10bit.mkv
    4. Format                         : Matroska
    5. Format version                 : Version 4
    6. File size                      : 412 MiB
    7. Duration                       : 21 min 17 s
    8. Overall bit rate               : 2 708 kb/s
    9. Encoded date                   : UTC 2018-08-09 15:21:40
    10. Writing application            : mkvmerge v25.0.0 ('Prog Noir') 64-bit
    11. Writing library                : libebml v1.3.6 + libmatroska v1.4.9

    12. Video
    13. ID                             : 1
    14. Format                         : HEVC
    15. Format/Info                    : High Efficiency Video Coding
    16. Format profile                 : Main 10@L4@High
    17. Codec ID                       : V_MPEGH/ISO/HEVC
    18. Duration                       : 21 min 17 s
    19. Bit rate                       : 2 459 kb/s
    20. Width                          : 1 920 pixels
    21. Height                         : 1 080 pixels
    22. Display aspect ratio           : 16:9
    23. Frame rate mode                : Constant
    24. Frame rate                     : 23.976 (24000/1001) FPS
    25. Color space                    : YUV
    26. Chroma subsampling             : 4:2:0
    27. Bit depth                      : 10 bits
    28. Bits/(Pixel*Frame)             : 0.049
    29. Stream size                    : 375 MiB (91%)
    30. Writing library                : x265 2.8+24-289b8a3730ae:[Windows][MSVC 1914][64 bit] 10bit
    31. Encoding settings              : cpuid=1111039 / frame-threads=4 / numa-pools=16 / wpp / no-pmode / no-pme / no-psnr / no-ssim / log-level=2 / input-csp=1 / input-res=1920x1080 / interlace=0 / total-frames=0 / level-idc=0 / high-tier=1 / uhd-bd=0 / ref=4 / no-allow-non-conformance / no-repeat-headers / annexb / no-aud / no-hrd / info / hash=0 / no-temporal-layers / no-open-gop / min-keyint=1 / keyint=600 / gop-lookahead=0 / bframes=4 / b-adapt=2 / b-pyramid / bframe-bias=0 / rc-lookahead=25 / lookahead-slices=4 / scenecut=40 / radl=0 / no-intra-refresh / ctu=64 / min-cu-size=8 / no-rect / no-amp / max-tu-size=32 / tu-inter-depth=1 / tu-intra-depth=1 / limit-tu=0 / rdoq-level=2 / dynamic-rd=0.00 / no-ssim-rd / signhide / no-tskip / nr-intra=0 / nr-inter=0 / no-constrained-intra / strong-intra-smoothing / max-merge=3 / limit-refs=3 / limit-modes / me=3 / subme=3 / merange=44 / temporal-mvp / weightp / weightb / no-analyze-src-pics / deblock=0:0 / no-sao / no-sao-non-deblock / rd=4 / no-early-skip / rskip / no-fast-intra / no-tskip-fast / no-cu-lossless / no-b-intra / no-splitrd-skip / rdpenalty=0 / psy-rd=3.00 / psy-rdoq=2.00 / no-rd-refine / no-lossless / cbqpoffs=0 / crqpoffs=0 / rc=crf / crf=22.7 / qcomp=0.65 / qpstep=4 / stats-write=0 / stats-read=0 / vbv-maxrate=27000 / vbv-bufsize=27000 / vbv-init=0.9 / crf-max=0.0 / crf-min=0.0 / ipratio=1.40 / pbratio=1.30 / aq-mode=3 / aq-strength=0.80 / cutree / zone-count=0 / no-strict-cbr / qg-size=32 / no-rc-grain / qpmax=28 / qpmin=0 / no-const-vbv / sar=0 / overscan=0 / videoformat=5 / range=0 / colorprim=1 / transfer=2 / colormatrix=2 / chromaloc=0 / display-window=0 / max-cll=0,0 / min-luma=0 / max-luma=1023 / log2-max-poc-lsb=8 / vui-timing-info / vui-hrd-info / slices=1 / no-opt-qp-pps / no-opt-ref-list-length-pps / no-multi-pass-opt-rps / scenecut-bias=0.05 / no-opt-cu-delta-qp / no-aq-motion / no-hdr / no-hdr-opt / no-dhdr10-opt / no-idr-recovery-sei / analysis-reuse-level=5 / scale-factor=0 / refine-intra=0 / refine-inter=0 / refine-mv=0 / no-limit-sao / ctu-info=0 / no-lowpass-dct / refine-mv-type=0 / copy-pic=1 / max-ausize-factor=1.0 / no-dynamic-refine / no-single-sei
    32. Default                        : Yes
    33. Forced                         : No
    34. Color range                    : Limited
    35. Color primaries                : BT.709

    36. Audio
    37. ID                             : 2
    38. Format                         : Opus
    39. Codec ID                       : A_OPUS
    40. Duration                       : 21 min 17 s
    41. Bit rate                       : 246 kb/s
    42. Channel(s)                     : 6 channels
    43. Channel layout                 : L R C Ls Rs Cb LFE
    44. Sampling rate                  : 48.0 kHz
    45. Frame rate                     : 50.000 FPS (960 SPF)
    46. Compression mode               : Lossy
    47. Stream size                    : 37.5 MiB (9%)
    48. Language                       : English
    49. Default                        : Yes
    50. Forced                         : No

    51. Text
    52. ID                             : 3
    53. Format                         : ASS
    54. Codec ID                       : S_TEXT/ASS
    55. Codec ID/Info                  : Advanced Sub Station Alpha
    56. Duration                       : 20 min 42 s
    57. Bit rate                       : 384 b/s
    58. Count of elements              : 446
    59. Compression mode               : Lossless
    60. Stream size                    : 58.3 KiB (0%)
    61. Language                       : Chinese
    62. Default                        : Yes
    63. Forced                         : No

    复制代码


    购买主题 已有 1 人购买  本主题需向作者支付 25 大洋 才能浏览
    回复

    使用道具 举报

  • TA的每日心情
    开心
    2020-5-22 00:14
  • 签到天数: 137 天

    [LV.7]常住居民III

    8

    主题

    1819

    帖子

    149

    积分

    中级影迷

    Rank: 3Rank: 3

    积分
    149
    发表于 2020-5-20 16:19:15 | 显示全部楼层
    好资源 支持
    回复

    使用道具 举报

  • TA的每日心情
    开心
    4 天前
  • 签到天数: 15 天

    [LV.4]偶尔看看III

    2

    主题

    89

    帖子

    40

    积分

    初级影迷

    Rank: 2

    积分
    40
    发表于 2020-5-20 17:36:15 | 显示全部楼层
    非常好的片子  谢谢分享
    回复

    使用道具 举报

  • TA的每日心情
    开心
    16 小时前
  • 签到天数: 45 天

    [LV.5]常住居民I

    3

    主题

    300

    帖子

    140

    积分

    中级影迷

    Rank: 3Rank: 3

    积分
    140
    发表于 2020-5-20 21:28:15 | 显示全部楼层
    谢谢分享!
    回复

    使用道具 举报

  • TA的每日心情
    开心
    2020-5-22 00:14
  • 签到天数: 137 天

    [LV.7]常住居民III

    8

    主题

    1819

    帖子

    149

    积分

    中级影迷

    Rank: 3Rank: 3

    积分
    149
    发表于 2020-5-21 00:10:39 | 显示全部楼层
    好资源 支持
    回复

    使用道具 举报

  • TA的每日心情
    慵懒
    昨天 07:00
  • 签到天数: 32 天

    [LV.5]常住居民I

    2

    主题

    171

    帖子

    31

    积分

    初级影迷

    Rank: 2

    积分
    31
    发表于 2020-5-21 11:03:11 | 显示全部楼层
    感谢分享!
    回复

    使用道具 举报

    该用户从未签到

    0

    主题

    21

    帖子

    25

    积分

    初级影迷

    Rank: 2

    积分
    25
    发表于 2020-5-28 14:02:09 | 显示全部楼层
    谢谢分享!
    回复

    使用道具 举报

    您需要登录后才可以回帖 登录 | 立即注册

    本版积分规则

    QQ|Archiver|手机版|小黑屋|影迷乐园  

    GMT+8, 2020-6-6 22:38 , Processed in 0.167432 second(s), 31 queries .

    Powered by Discuz! X3.3

    © 2001-2017 Comsenz Inc.

    快速回复 返回顶部 返回列表