请选择 进入手机版 | 继续访问电脑版

YMLY-影迷乐园-特效字幕 蓝光原盘 1080P 高清动漫电影电视剧

 找回密码
 立即注册
搜索
查看: 75|回复: 6

[韩国] [百度][2017][1080P][三流之路][韩语简体多国字幕][MKV][31.13GB][Fight.For.My.Way.1080p.NF.WEB-DL.DDP2.0.x264-Ao]

[复制链接]
  • TA的每日心情
    慵懒
    6 小时前
  • 签到天数: 332 天

    [LV.8]以坛为家I

    508

    主题

    960

    帖子

    3474

    积分

    超级版主

    Rank: 16Rank: 16Rank: 16Rank: 16

    积分
    3474

    超版勋章版主勋章优秀版主土豪勋章小土豪勋章主题达人百分百好孩子最佳新人影迷男神

    发表于 2020-5-20 21:24:03 | 显示全部楼层 |阅读模式

    ◎译  名 三流之路 / Fight For My Way / 三流人生 / 我的打架之路
    ◎片  名 쌈, 마이웨이
    ◎年  代 2017
    ◎产  地 韩国
    ◎类  别 剧情 / 喜剧 / 爱情
    ◎语  言 韩语
    ◎上映日期 2017-05-22(韩国)
    ◎IMDb评分  8.1/10 from 2013 users
    ◎IMDb链接  https://www.imdb.com/title/tt6824234
    ◎豆瓣评分 8.3/10 from 71147 users
    ◎豆瓣链接 https://movie.douban.com/subject/26972688/
    ◎集  数 16
    ◎片  长 60分钟
    ◎导  演 李娜静 Na-jeong Lee
    ◎编  剧 林尚春 Sang-chun Lm
    ◎主  演 朴叙俊 Seo-Jun Park
           金智媛 Ji-won Kim
           安在洪 Jae-hong Ahn
           宋昰昀 Ha-yoon Song
           金圣武 Seong-oh Kim
           崔宇植 Woo-Sik Choi
           李伊利雅 Elliya Lee
           孙炳昊 Byong-ho Son
           金艺玲 Ye-ryeong Kim
           郭东延 Gwak Dong Yeon
           陈智熙 Ji-hee Jin
           表艺珍 Ye-jin Pyo
           朱利安·姜 Julien Kang
           郭时旸 Si-yang Kwak
           黄宝拉 Bo-ra Hwang
           陈熙京 Hee-kyung Jin


    ◎标  签 韩剧 | 爱情 | 三流之路 | 治愈系 | 喜剧 | 梦想 | 温暖 | 韩国

    ◎简  介  

      讲述没有金钱没有背景过着配角人生的高东万(朴叙俊 饰)和崔爱罗(金智媛 饰)冲破束缚成为业界精英、人生主角的故事。

    ◎获奖情况  

      第54届百想艺术大赏(2018)
      电视类 最佳电视剧(提名)
      电视类 最佳男主角奖(提名) 朴叙俊
      电视类 最佳男配角(提名) 安宰弘
      电视类 最佳女配角(提名) 宋昰昀
      电视类 最佳剧本(提名) 林尚春

      第4届豆瓣电影年度榜单(2017)
      评分最高的韩剧(提名)
    1. General
    2. Unique ID                      : 195251292402681083635908947307418169108 (0x92E407F4535C0EB56D7C107E9E212F14)
    3. Complete name                  : E:\影视\三流之路\三流之路.Fight.For.My.Way.S01E01.1080p.NF.WEB-DL.DDP2.0.x264-Ao.mkv
    4. Format                         : Matroska
    5. Format version                 : Version 4 / Version 2
    6. File size                      : 1.98 GiB
    7. Duration                       : 59 min 21 s
    8. Overall bit rate mode          : Variable
    9. Overall bit rate               : 4 767 kb/s
    10. Encoded date                   : UTC 2019-07-04 17:24:01
    11. Writing application            : mkvmerge v32.0.0 ('Astral Progressions') 64-bit
    12. Writing library                : libebml v1.3.7 + libmatroska v1.5.0

    13. Video
    14. ID                             : 1
    15. Format                         : AVC
    16. Format/Info                    : Advanced Video Codec
    17. Format profile                 : Main@L4
    18. Format settings                : CABAC / 3 Ref Frames
    19. Format settings, CABAC         : Yes
    20. Format settings, ReFrames      : 3 frames
    21. Codec ID                       : V_MPEG4/ISO/AVC
    22. Duration                       : 59 min 21 s
    23. Bit rate mode                  : Variable
    24. Bit rate                       : 4 640 kb/s
    25. Maximum bit rate               : 6 960 kb/s
    26. Width                          : 1 920 pixels
    27. Height                         : 1 080 pixels
    28. Display aspect ratio           : 16:9
    29. Frame rate mode                : Constant
    30. Frame rate                     : 23.976 (24000/1001) FPS
    31. Color space                    : YUV
    32. Chroma subsampling             : 4:2:0
    33. Bit depth                      : 8 bits
    34. Scan type                      : Progressive
    35. Bits/(Pixel*Frame)             : 0.093
    36. Stream size                    : 1.92 GiB (97%)
    37. Writing library                : x264 core 148 r2715 7e75228
    38. Encoding settings              : cabac=1 / ref=3 / deblock=1:0:0 / analyse=0x1:0x111 / me=umh / subme=10 / psy=1 / psy_rd=1.00:0.00 / mixed_ref=1 / me_range=24 / chroma_me=1 / trellis=2 / 8x8dct=0 / cqm=0 / deadzone=21,11 / fast_pskip=1 / chroma_qp_offset=-2 / threads=8 / lookahead_threads=1 / sliced_threads=0 / nr=0 / decimate=1 / interlaced=0 / bluray_compat=0 / stitchable=1 / constrained_intra=0 / bframes=2 / b_pyramid=0 / b_adapt=2 / b_bias=0 / direct=3 / weightb=1 / open_gop=0 / weightp=2 / keyint=250 / keyint_min=23 / scenecut=0 / intra_refresh=0 / rc_lookahead=48 / rc=2pass / mbtree=1 / bitrate=4640 / ratetol=1.0 / qcomp=0.50 / qpmin=6 / qpmax=51 / qpstep=4 / cplxblur=20.0 / qblur=0.5 / vbv_maxrate=6960 / vbv_bufsize=9280 / nal_hrd=vbr / filler=0 / ip_ratio=1.40 / aq=1:1.00
    39. Default                        : Yes
    40. Forced                         : No

    41. Audio
    42. ID                             : 2
    43. Format                         : E-AC-3
    44. Format/Info                    : Enhanced Audio Coding 3
    45. Codec ID                       : A_EAC3
    46. Duration                       : 59 min 21 s
    47. Bit rate mode                  : Constant
    48. Bit rate                       : 128 kb/s
    49. Channel(s)                     : 2 channels
    50. Channel positions              : Front: L R
    51. Sampling rate                  : 48.0 kHz
    52. Frame rate                     : 187.500 FPS (256 SPF)
    53. Compression mode               : Lossy
    54. Stream size                    : 54.3 MiB (3%)
    55. Title                          : Korean [Original]
    56. Language                       : Korean
    57. Service kind                   : Complete Main
    58. Default                        : No
    59. Forced                         : No

    60. Text #1
    61. ID                             : 3
    62. Format                         : UTF-8
    63. Codec ID                       : S_TEXT/UTF8
    64. Codec ID/Info                  : UTF-8 Plain Text
    65. Duration                       : 59 min 19 s
    66. Bit rate                       : 90 b/s
    67. Count of elements              : 1217
    68. Stream size                    : 39.1 KiB (0%)
    69. Title                          : Korean
    70. Language                       : Korean
    71. Default                        : No
    72. Forced                         : No

    73. Text #2
    74. ID                             : 4
    75. Format                         : UTF-8
    76. Codec ID                       : S_TEXT/UTF8
    77. Codec ID/Info                  : UTF-8 Plain Text
    78. Duration                       : 59 min 14 s
    79. Bit rate                       : 2 b/s
    80. Count of elements              : 31
    81. Stream size                    : 982 Bytes (0%)
    82. Title                          : Off
    83. Language                       : Korean
    84. Default                        : No
    85. Forced                         : Yes

    86. Text #3
    87. ID                             : 5
    88. Format                         : UTF-8
    89. Codec ID                       : S_TEXT/UTF8
    90. Codec ID/Info                  : UTF-8 Plain Text
    91. Duration                       : 58 min 59 s
    92. Bit rate                       : 102 b/s
    93. Count of elements              : 876
    94. Stream size                    : 44.1 KiB (0%)
    95. Title                          : Arabic
    96. Language                       : Arabic
    97. Default                        : No
    98. Forced                         : No

    99. Text #4
    100. ID                             : 6
    101. Format                         : UTF-8
    102. Codec ID                       : S_TEXT/UTF8
    103. Codec ID/Info                  : UTF-8 Plain Text
    104. Duration                       : 59 min 0 s
    105. Bit rate                       : 58 b/s
    106. Count of elements              : 873
    107. Stream size                    : 25.3 KiB (0%)
    108. Title                          : English
    109. Language                       : English
    110. Default                        : Yes
    111. Forced                         : No

    112. Text #5
    113. ID                             : 7
    114. Format                         : UTF-8
    115. Codec ID                       : S_TEXT/UTF8
    116. Codec ID/Info                  : UTF-8 Plain Text
    117. Duration                       : 58 min 59 s
    118. Bit rate                       : 58 b/s
    119. Count of elements              : 884
    120. Stream size                    : 25.1 KiB (0%)
    121. Title                          : French
    122. Language                       : French
    123. Default                        : No
    124. Forced                         : No

    125. Text #6
    126. ID                             : 8
    127. Format                         : UTF-8
    128. Codec ID                       : S_TEXT/UTF8
    129. Codec ID/Info                  : UTF-8 Plain Text
    130. Duration                       : 58 min 59 s
    131. Bit rate                       : 58 b/s
    132. Count of elements              : 879
    133. Stream size                    : 25.1 KiB (0%)
    134. Title                          : Indonesian
    135. Language                       : Indonesian
    136. Default                        : No
    137. Forced                         : No

    138. Text #7
    139. ID                             : 9
    140. Format                         : UTF-8
    141. Codec ID                       : S_TEXT/UTF8
    142. Codec ID/Info                  : UTF-8 Plain Text
    143. Duration                       : 58 min 59 s
    144. Bit rate                       : 119 b/s
    145. Count of elements              : 884
    146. Stream size                    : 51.7 KiB (0%)
    147. Title                          : Thai
    148. Language                       : Thai
    149. Default                        : No
    150. Forced                         : No

    151. Text #8
    152. ID                             : 10
    153. Format                         : UTF-8
    154. Codec ID                       : S_TEXT/UTF8
    155. Codec ID/Info                  : UTF-8 Plain Text
    156. Duration                       : 59 min 0 s
    157. Bit rate                       : 55 b/s
    158. Count of elements              : 882
    159. Stream size                    : 23.9 KiB (0%)
    160. Title                          : Turkish
    161. Language                       : Turkish
    162. Default                        : No
    163. Forced                         : No

    164. Text #9
    165. ID                             : 11
    166. Format                         : UTF-8
    167. Codec ID                       : S_TEXT/UTF8
    168. Codec ID/Info                  : UTF-8 Plain Text
    169. Duration                       : 58 min 59 s
    170. Bit rate                       : 52 b/s
    171. Count of elements              : 945
    172. Stream size                    : 22.9 KiB (0%)
    173. Title                          : Simplified Chinese
    174. Language                       : Chinese
    175. Default                        : No
    176. Forced                         : No

    复制代码






    购买主题 已有 3 人购买  本主题需向作者支付 30 大洋 才能浏览
    回复

    使用道具 举报

  • TA的每日心情
    开心
    3 小时前
  • 签到天数: 45 天

    [LV.5]常住居民I

    3

    主题

    300

    帖子

    140

    积分

    中级影迷

    Rank: 3Rank: 3

    积分
    140
    发表于 2020-5-20 21:26:46 | 显示全部楼层
    谢谢分享!
    回复

    使用道具 举报

  • TA的每日心情
    开心
    2020-5-22 00:14
  • 签到天数: 137 天

    [LV.7]常住居民III

    8

    主题

    1819

    帖子

    149

    积分

    中级影迷

    Rank: 3Rank: 3

    积分
    149
    发表于 2020-5-21 00:19:33 | 显示全部楼层
    好资源 支持
    回复

    使用道具 举报

  • TA的每日心情

    9 小时前
  • 签到天数: 147 天

    [LV.7]常住居民III

    22

    主题

    648

    帖子

    103

    积分

    中级影迷

    Rank: 3Rank: 3

    积分
    103
    发表于 2020-5-21 01:10:53 | 显示全部楼层
    女主长得真可爱,感谢分享
    回复

    使用道具 举报

  • TA的每日心情
    难过
    4 天前
  • 签到天数: 5 天

    [LV.2]偶尔看看I

    0

    主题

    51

    帖子

    6

    积分

    入门影迷

    Rank: 1

    积分
    6
    发表于 2020-5-21 01:16:14 | 显示全部楼层
    感谢分享!!!

    回复

    使用道具 举报

  • TA的每日心情
    开心
    昨天 09:51
  • 签到天数: 30 天

    [LV.5]常住居民I

    8

    主题

    396

    帖子

    236

    积分

    高级影迷

    Rank: 4

    积分
    236
    发表于 2020-5-23 23:56:25 | 显示全部楼层
    谢谢分享,辛苦了
    回复

    使用道具 举报

  • TA的每日心情
    开心
    2 小时前
  • 签到天数: 9 天

    [LV.3]偶尔看看II

    0

    主题

    31

    帖子

    4

    积分

    入门影迷

    Rank: 1

    积分
    4
    发表于 2020-5-26 16:30:03 | 显示全部楼层
    谢谢分享,辛苦了
    回复

    使用道具 举报

    您需要登录后才可以回帖 登录 | 立即注册

    本版积分规则

    QQ|Archiver|手机版|小黑屋|影迷乐园  

    GMT+8, 2020-6-6 09:26 , Processed in 0.144841 second(s), 31 queries .

    Powered by Discuz! X3.3

    © 2001-2017 Comsenz Inc.

    快速回复 返回顶部 返回列表