请选择 进入手机版 | 继续访问电脑版

YMLY-影迷乐园-特效字幕 蓝光原盘 1080P 高清动漫电影电视剧

 找回密码
 立即注册
搜索
查看: 57|回复: 2

[美国] [百度][2020][1080P][上载新生.S01][英语简繁多国字幕][MKV][25.07GB][Upload.S01.1080p.AMZN.WEB.DDP5.1.x264-NTb]

[复制链接]
  • TA的每日心情
    慵懒
    17 小时前
  • 签到天数: 332 天

    [LV.8]以坛为家I

    508

    主题

    960

    帖子

    3478

    积分

    超级版主

    Rank: 16Rank: 16Rank: 16Rank: 16

    积分
    3478

    超版勋章版主勋章优秀版主土豪勋章小土豪勋章主题达人百分百好孩子最佳新人影迷男神

    发表于 2020-5-20 22:06:29 | 显示全部楼层 |阅读模式

    ◎译  名 上载新生 第一季 / 上传
    ◎片  名 Upload Season 1
    ◎年  代 2020
    ◎产  地 美国
    ◎类  别 喜剧 / 科幻 / 悬疑
    ◎语  言 英语
    ◎上映日期 2020-05-01(美国)
    ◎IMDb评分  8.2/10 from 13136 users
    ◎IMDb链接  https://www.imdb.com/title/tt7826376
    ◎豆瓣评分 8.5/10 from 8359 users
    ◎豆瓣链接 https://movie.douban.com/subject/27622782/
    ◎集  数 10
    ◎片  长 45分钟
    ◎导  演 克雷格·丹尼尔斯 Greg Daniels / 杰弗里·布里茨 Jeffrey Blitz / 乔纳森·范塔勒肯 Jonathan van Tulleken / Kacie Anning / David Rogers / 戴纳·里德 Daina Reid
    ◎编  剧 克雷格·丹尼尔斯 Greg Daniels / Mary Gulino / Aasia LaShay Bullock / Mike Lawrence / Shepard Boucher / 欧文·丹尼尔斯 Owen Daniels / Alex Sherman / Alyssa Lane
    ◎主  演 罗比·阿美尔 Robbie Amell
           安迪·阿洛 Andy Allo
           阿莱格拉·爱德华兹 Allegra Edwards
           扎伊纳布·约翰逊 Zainab Johnson
           凯文·比格利 Kevin Bigley
           欧文·丹尼尔斯 Owen Daniels
           安德莉亚·罗森 Andrea Rosen
           乔丹 约翰孙-西德 Jordan Johnson-Hinds
           乔希·班迪 Josh Banday
           威廉·B·戴维斯 William B. Davis
           伊丽莎白·鲍恩 Elizabeth Bowen
           克里斯·威廉斯 Chris Williams
           杰西卡·塔克 Jessica Tuck
           马特·沃德 Matt Ward
           葛晓洁 Christine Ko
           克洛伊·科尔曼 Chloe Coleman
           巴克莱·霍普 Barclay Hope
           希拉里·杰迪妮 Hilary Jardine
           尼古莱·维切尔 Nikolai Witschl
           维恩·维尔德森 Wayne Wilderson
           泰瑞尔·罗瑟里 Teryl Rothery
           拉里·威尔莫 Larry Wilmore
           卡梅尔阿密特 Carmel Amit
           阿里萨·维拉尼 Aliza Vellani
           梅根·弗格森 Megan Ferguson
           皮特·詹姆斯·史密斯 Peter James Smith
           乔尼查韦斯 Johnny Chavez
           卡丽丝·卡梅隆 Karis Cameron


    ◎标  签 科幻 | 美国 | 喜剧 | 2020 | Amazon | 黑色幽默 | 剧情 | 悬疑

    ◎简  介  

      在不远的2033年,六家科技公司运营虚拟现实酒店,将死之人可以“上传”其中安享后世。紧巴巴过日子的诺拉蜗居纽约布鲁克林,并为“豪丽禅·湖景(Horizen Lakeview)”豪华数字身后世界提供“天使”客服。洛杉矶浪荡程序员内森遭遇自动驾驶事故,伤势严重命悬一线,物质女友英格丽说服其永久上传,进入诺拉供职的豪丽禅虚拟现实世界。
    1. General
    2. Unique ID                      : 104185176123587915023025940591613832403 (0x4E6155C58F36865F5699291D0743ECD3)
    3. Complete name                  : E:\影视\Upload.S01.1080p.AMZN.WEB.DDP5.1.x264-NTb[rartv]\Upload.S01E01.1080p.AMZN.WEBRip.DDP5.1.x264-NTb.mkv
    4. Format                         : Matroska
    5. Format version                 : Version 4 / Version 2
    6. File size                      : 3.77 GiB
    7. Duration                       : 45 min 56 s
    8. Overall bit rate               : 11.7 Mb/s
    9. Encoded date                   : UTC 2020-05-01 14:43:01
    10. Writing application            : mkvmerge v44.0.0 ('Domino') 64-bit
    11. Writing library                : libebml v1.3.10 + libmatroska v1.5.2

    12. Video
    13. ID                             : 1
    14. Format                         : AVC
    15. Format/Info                    : Advanced Video Codec
    16. Format profile                 : High@L4.1
    17. Format settings                : CABAC / 4 Ref Frames
    18. Format settings, CABAC         : Yes
    19. Format settings, ReFrames      : 4 frames
    20. Codec ID                       : V_MPEG4/ISO/AVC
    21. Duration                       : 45 min 56 s
    22. Bit rate                       : 11.1 Mb/s
    23. Width                          : 1 920 pixels
    24. Height                         : 1 080 pixels
    25. Display aspect ratio           : 16:9
    26. Frame rate mode                : Constant
    27. Frame rate                     : 23.976 (24000/1001) FPS
    28. Color space                    : YUV
    29. Chroma subsampling             : 4:2:0
    30. Bit depth                      : 8 bits
    31. Scan type                      : Progressive
    32. Bits/(Pixel*Frame)             : 0.223
    33. Stream size                    : 3.56 GiB (94%)
    34. Writing library                : x264 core 159 r2991+50 29469ee t_mod_New [all-bit@all X86_64]
    35. Encoding settings              : cabac=1 / ref=4 / deblock=1:-3:-3 / analyse=0x3:0x133 / me=umh / subme=10 / psy=1 / fade_compensate=0.00 / psy_rd=1.00:0.15 / mixed_ref=1 / me_range=48 / chroma_me=1 / trellis=2 / 8x8dct=1 / cqm=0 / deadzone=21,11 / fast_pskip=0 / chroma_qp_offset=-3 / threads=24 / lookahead_threads=4 / sliced_threads=0 / nr=0 / decimate=0 / interlaced=0 / bluray_compat=0 / constrained_intra=0 / fgo=0 / bframes=8 / b_pyramid=2 / b_adapt=2 / b_bias=0 / direct=3 / weightb=1 / open_gop=0 / weightp=2 / keyint=250 / keyint_min=23 / scenecut=40 / intra_refresh=0 / rc=crf / mbtree=0 / crf=17.0000 / qcomp=0.60 / qpmin=0:0:0 / qpmax=69:69:69 / qpstep=4 / ip_ratio=1.30 / pb_ratio=1.20 / aq=3:0.80 / aq-sensitivity=10.00 / aq-factor=1.00:1.00:1.00 / aq2=0 / aq3=0
    36. Default                        : Yes
    37. Forced                         : No

    38. Audio
    39. ID                             : 2
    40. Format                         : E-AC-3
    41. Format/Info                    : Enhanced Audio Coding 3
    42. Codec ID                       : A_EAC3
    43. Duration                       : 45 min 56 s
    44. Bit rate mode                  : Constant
    45. Bit rate                       : 640 kb/s
    46. Channel(s)                     : 6 channels
    47. Channel positions              : Front: L C R, Side: L R, LFE
    48. Sampling rate                  : 48.0 kHz
    49. Frame rate                     : 187.500 FPS (256 SPF)
    50. Compression mode               : Lossy
    51. Stream size                    : 210 MiB (5%)
    52. Language                       : English
    53. Service kind                   : Complete Main
    54. Default                        : Yes
    55. Forced                         : No

    56. Text #1
    57. ID                             : 3
    58. Format                         : UTF-8
    59. Codec ID                       : S_TEXT/UTF8
    60. Codec ID/Info                  : UTF-8 Plain Text
    61. Duration                       : 43 min 48 s
    62. Bit rate                       : 82 b/s
    63. Count of elements              : 965
    64. Stream size                    : 26.5 KiB (0%)
    65. Title                          : SDH
    66. Language                       : English
    67. Default                        : No
    68. Forced                         : No

    69. Text #2
    70. ID                             : 4
    71. Format                         : UTF-8
    72. Codec ID                       : S_TEXT/UTF8
    73. Codec ID/Info                  : UTF-8 Plain Text
    74. Duration                       : 43 min 29 s
    75. Bit rate                       : 121 b/s
    76. Count of elements              : 738
    77. Stream size                    : 38.7 KiB (0%)
    78. Language                       : Arabic
    79. Default                        : No
    80. Forced                         : No

    81. Text #3
    82. ID                             : 5
    83. Format                         : UTF-8
    84. Codec ID                       : S_TEXT/UTF8
    85. Codec ID/Info                  : UTF-8 Plain Text
    86. Duration                       : 43 min 29 s
    87. Bit rate                       : 69 b/s
    88. Count of elements              : 732
    89. Stream size                    : 22.3 KiB (0%)
    90. Language                       : Danish
    91. Default                        : No
    92. Forced                         : No

    93. Text #4
    94. ID                             : 6
    95. Format                         : UTF-8
    96. Codec ID                       : S_TEXT/UTF8
    97. Codec ID/Info                  : UTF-8 Plain Text
    98. Duration                       : 43 min 29 s
    99. Bit rate                       : 66 b/s
    100. Count of elements              : 512
    101. Stream size                    : 21.1 KiB (0%)
    102. Language                       : German
    103. Default                        : No
    104. Forced                         : No

    105. Text #5
    106. ID                             : 7
    107. Format                         : UTF-8
    108. Codec ID                       : S_TEXT/UTF8
    109. Codec ID/Info                  : UTF-8 Plain Text
    110. Duration                       : 43 min 29 s
    111. Bit rate                       : 74 b/s
    112. Count of elements              : 717
    113. Stream size                    : 23.6 KiB (0%)
    114. Title                          : Latinoamérica
    115. Language                       : Spanish
    116. Default                        : No
    117. Forced                         : No

    118. Text #6
    119. ID                             : 8
    120. Format                         : UTF-8
    121. Codec ID                       : S_TEXT/UTF8
    122. Codec ID/Info                  : UTF-8 Plain Text
    123. Duration                       : 43 min 29 s
    124. Bit rate                       : 75 b/s
    125. Count of elements              : 736
    126. Stream size                    : 24.1 KiB (0%)
    127. Title                          : España
    128. Language                       : Spanish
    129. Default                        : No
    130. Forced                         : No

    131. Text #7
    132. ID                             : 9
    133. Format                         : UTF-8
    134. Codec ID                       : S_TEXT/UTF8
    135. Codec ID/Info                  : UTF-8 Plain Text
    136. Duration                       : 43 min 29 s
    137. Bit rate                       : 73 b/s
    138. Count of elements              : 731
    139. Stream size                    : 23.4 KiB (0%)
    140. Language                       : Finnish
    141. Default                        : No
    142. Forced                         : No

    143. Text #8
    144. ID                             : 10
    145. Format                         : UTF-8
    146. Codec ID                       : S_TEXT/UTF8
    147. Codec ID/Info                  : UTF-8 Plain Text
    148. Duration                       : 43 min 29 s
    149. Bit rate                       : 73 b/s
    150. Count of elements              : 735
    151. Stream size                    : 23.5 KiB (0%)
    152. Language                       : French
    153. Default                        : No
    154. Forced                         : No

    155. Text #9
    156. ID                             : 11
    157. Format                         : UTF-8
    158. Codec ID                       : S_TEXT/UTF8
    159. Codec ID/Info                  : UTF-8 Plain Text
    160. Duration                       : 43 min 29 s
    161. Bit rate                       : 115 b/s
    162. Count of elements              : 738
    163. Stream size                    : 36.7 KiB (0%)
    164. Language                       : Hebrew
    165. Default                        : No
    166. Forced                         : No

    167. Text #10
    168. ID                             : 12
    169. Format                         : UTF-8
    170. Codec ID                       : S_TEXT/UTF8
    171. Codec ID/Info                  : UTF-8 Plain Text
    172. Duration                       : 43 min 29 s
    173. Bit rate                       : 202 b/s
    174. Count of elements              : 738
    175. Stream size                    : 64.5 KiB (0%)
    176. Language                       : Hindi
    177. Default                        : No
    178. Forced                         : No

    179. Text #11
    180. ID                             : 13
    181. Format                         : UTF-8
    182. Codec ID                       : S_TEXT/UTF8
    183. Codec ID/Info                  : UTF-8 Plain Text
    184. Duration                       : 43 min 29 s
    185. Bit rate                       : 62 b/s
    186. Count of elements              : 730
    187. Stream size                    : 19.8 KiB (0%)
    188. Language                       : Indonesian
    189. Default                        : No
    190. Forced                         : No

    191. Text #12
    192. ID                             : 14
    193. Format                         : UTF-8
    194. Codec ID                       : S_TEXT/UTF8
    195. Codec ID/Info                  : UTF-8 Plain Text
    196. Duration                       : 43 min 29 s
    197. Bit rate                       : 78 b/s
    198. Count of elements              : 731
    199. Stream size                    : 24.9 KiB (0%)
    200. Language                       : Italian
    201. Default                        : No
    202. Forced                         : No

    203. Text #13
    204. ID                             : 15
    205. Format                         : UTF-8
    206. Codec ID                       : S_TEXT/UTF8
    207. Codec ID/Info                  : UTF-8 Plain Text
    208. Duration                       : 43 min 30 s
    209. Bit rate                       : 67 b/s
    210. Count of elements              : 699
    211. Stream size                    : 21.4 KiB (0%)
    212. Language                       : Japanese
    213. Default                        : No
    214. Forced                         : No

    215. Text #14
    216. ID                             : 16
    217. Format                         : UTF-8
    218. Codec ID                       : S_TEXT/UTF8
    219. Codec ID/Info                  : UTF-8 Plain Text
    220. Duration                       : 43 min 29 s
    221. Bit rate                       : 77 b/s
    222. Count of elements              : 735
    223. Stream size                    : 24.8 KiB (0%)
    224. Language                       : Korean
    225. Default                        : No
    226. Forced                         : No

    227. Text #15
    228. ID                             : 17
    229. Format                         : UTF-8
    230. Codec ID                       : S_TEXT/UTF8
    231. Codec ID/Info                  : UTF-8 Plain Text
    232. Duration                       : 43 min 29 s
    233. Bit rate                       : 76 b/s
    234. Count of elements              : 735
    235. Stream size                    : 24.2 KiB (0%)
    236. Language                       : Norwegian Bokmal
    237. Default                        : No
    238. Forced                         : No

    239. Text #16
    240. ID                             : 18
    241. Format                         : UTF-8
    242. Codec ID                       : S_TEXT/UTF8
    243. Codec ID/Info                  : UTF-8 Plain Text
    244. Duration                       : 43 min 29 s
    245. Bit rate                       : 68 b/s
    246. Count of elements              : 714
    247. Stream size                    : 21.8 KiB (0%)
    248. Language                       : Dutch
    249. Default                        : No
    250. Forced                         : No

    251. Text #17
    252. ID                             : 19
    253. Format                         : UTF-8
    254. Codec ID                       : S_TEXT/UTF8
    255. Codec ID/Info                  : UTF-8 Plain Text
    256. Duration                       : 43 min 29 s
    257. Bit rate                       : 65 b/s
    258. Count of elements              : 714
    259. Stream size                    : 20.7 KiB (0%)
    260. Language                       : Polish
    261. Default                        : No
    262. Forced                         : No

    263. Text #18
    264. ID                             : 20
    265. Format                         : UTF-8
    266. Codec ID                       : S_TEXT/UTF8
    267. Codec ID/Info                  : UTF-8 Plain Text
    268. Duration                       : 43 min 29 s
    269. Bit rate                       : 73 b/s
    270. Count of elements              : 729
    271. Stream size                    : 23.5 KiB (0%)
    272. Language                       : Portuguese
    273. Default                        : No
    274. Forced                         : No

    275. Text #19
    276. ID                             : 21
    277. Format                         : UTF-8
    278. Codec ID                       : S_TEXT/UTF8
    279. Codec ID/Info                  : UTF-8 Plain Text
    280. Duration                       : 43 min 29 s
    281. Bit rate                       : 130 b/s
    282. Count of elements              : 738
    283. Stream size                    : 41.5 KiB (0%)
    284. Language                       : Russian
    285. Default                        : No
    286. Forced                         : No

    287. Text #20
    288. ID                             : 22
    289. Format                         : UTF-8
    290. Codec ID                       : S_TEXT/UTF8
    291. Codec ID/Info                  : UTF-8 Plain Text
    292. Duration                       : 43 min 29 s
    293. Bit rate                       : 66 b/s
    294. Count of elements              : 706
    295. Stream size                    : 21.2 KiB (0%)
    296. Language                       : Swedish
    297. Default                        : No
    298. Forced                         : No

    299. Text #21
    300. ID                             : 23
    301. Format                         : UTF-8
    302. Codec ID                       : S_TEXT/UTF8
    303. Codec ID/Info                  : UTF-8 Plain Text
    304. Duration                       : 43 min 29 s
    305. Bit rate                       : 195 b/s
    306. Count of elements              : 736
    307. Stream size                    : 62.1 KiB (0%)
    308. Language                       : Tamil
    309. Default                        : No
    310. Forced                         : No

    311. Text #22
    312. ID                             : 24
    313. Format                         : UTF-8
    314. Codec ID                       : S_TEXT/UTF8
    315. Codec ID/Info                  : UTF-8 Plain Text
    316. Duration                       : 43 min 29 s
    317. Bit rate                       : 213 b/s
    318. Count of elements              : 738
    319. Stream size                    : 68.1 KiB (0%)
    320. Language                       : Telugu
    321. Default                        : No
    322. Forced                         : No

    323. Text #23
    324. ID                             : 25
    325. Format                         : UTF-8
    326. Codec ID                       : S_TEXT/UTF8
    327. Codec ID/Info                  : UTF-8 Plain Text
    328. Duration                       : 43 min 29 s
    329. Bit rate                       : 183 b/s
    330. Count of elements              : 737
    331. Stream size                    : 58.5 KiB (0%)
    332. Language                       : Thai
    333. Default                        : No
    334. Forced                         : No

    335. Text #24
    336. ID                             : 26
    337. Format                         : UTF-8
    338. Codec ID                       : S_TEXT/UTF8
    339. Codec ID/Info                  : UTF-8 Plain Text
    340. Duration                       : 43 min 29 s
    341. Bit rate                       : 68 b/s
    342. Count of elements              : 730
    343. Stream size                    : 21.9 KiB (0%)
    344. Language                       : Turkish
    345. Default                        : No
    346. Forced                         : No

    347. Text #25
    348. ID                             : 27
    349. Format                         : UTF-8
    350. Codec ID                       : S_TEXT/UTF8
    351. Codec ID/Info                  : UTF-8 Plain Text
    352. Duration                       : 43 min 29 s
    353. Bit rate                       : 69 b/s
    354. Count of elements              : 738
    355. Stream size                    : 22.1 KiB (0%)
    356. Title                          : 中文(简体)
    357. Language                       : Chinese
    358. Default                        : No
    359. Forced                         : No

    360. Text #26
    361. ID                             : 28
    362. Format                         : UTF-8
    363. Codec ID                       : S_TEXT/UTF8
    364. Codec ID/Info                  : UTF-8 Plain Text
    365. Duration                       : 43 min 29 s
    366. Bit rate                       : 69 b/s
    367. Count of elements              : 738
    368. Stream size                    : 22.2 KiB (0%)
    369. Title                          : 中文(繁體)
    370. Language                       : Chinese
    371. Default                        : No
    372. Forced                         : No

    复制代码







    购买主题 已有 1 人购买  本主题需向作者支付 30 大洋 才能浏览
    回复

    使用道具 举报

  • TA的每日心情
    开心
    2020-5-22 00:14
  • 签到天数: 137 天

    [LV.7]常住居民III

    8

    主题

    1819

    帖子

    149

    积分

    中级影迷

    Rank: 3Rank: 3

    积分
    149
    发表于 2020-5-21 00:20:36 | 显示全部楼层
    好资源 支持
    回复

    使用道具 举报

  • TA的每日心情

    1 小时前
  • 签到天数: 20 天

    [LV.4]偶尔看看III

    0

    主题

    49

    帖子

    14

    积分

    入门影迷

    Rank: 1

    积分
    14
    发表于 2020-5-24 09:51:40 | 显示全部楼层
    感谢分享好资源
    回复

    使用道具 举报

    您需要登录后才可以回帖 登录 | 立即注册

    本版积分规则

    QQ|Archiver|手机版|小黑屋|影迷乐园  

    GMT+8, 2020-6-6 21:07 , Processed in 0.140494 second(s), 31 queries .

    Powered by Discuz! X3.3

    © 2001-2017 Comsenz Inc.

    快速回复 返回顶部 返回列表