请选择 进入手机版 | 继续访问电脑版

YMLY-影迷乐园-特效字幕 蓝光原盘 1080P 高清动漫电影电视剧

 找回密码
 立即注册
搜索
查看: 72|回复: 3

[大陆] [百度][2016][2160P][微微一笑很倾城][国语中字][MP4][40.58GB][Love.O2O.Complete.4K.youku.WEB.DL.H265.AAC-Ryu]

[复制链接]
  • TA的每日心情
    慵懒
    18 小时前
  • 签到天数: 332 天

    [LV.8]以坛为家I

    508

    主题

    960

    帖子

    3478

    积分

    超级版主

    Rank: 16Rank: 16Rank: 16Rank: 16

    积分
    3478

    超版勋章版主勋章优秀版主土豪勋章小土豪勋章主题达人百分百好孩子最佳新人影迷男神

    发表于 2020-5-20 22:39:39 | 显示全部楼层 |阅读模式

    ◎译  名 A Smile is Beautiful / Love O2O / Weiwei's Beautiful Smile / 微微一笑很倾城电视剧版
    ◎片  名 微微一笑很倾城
    ◎年  代 2016
    ◎产  地 中国大陆
    ◎类  别 剧情 / 爱情
    ◎语  言 汉语普通话
    ◎上映日期 2016-08-22(中国大陆)
    ◎IMDb评分  8.0/10 from 1211 users
    ◎IMDb链接  https://www.imdb.com/title/tt6055498
    ◎豆瓣评分 6.9/10 from 142463 users
    ◎豆瓣链接 https://movie.douban.com/subject/26427831/
    ◎集  数 30
    ◎片  长 45分钟
    ◎导  演 林玉芬 Yuk-Fan Lam
    ◎编  剧 顾漫 Man Gu / 沈飞弦 Feixian Shen / 李文婷 Wenting Li / 欧阳晓鋆 Scarlett OuYang / 马克明 Keming Ma / 何昕明 Shing-Ming Ho / 王加安 / 陈亚孜 / 林晴宇 / 余易勋 Yixun Yu
    ◎主  演 郑爽 Shuang Zheng
           杨洋 Yang Yang
           毛晓彤 Xiaotong Mao
           白宇 Yu Bai
           郑业成 Yecheng Zheng
           牛骏峰 Junfeng Niu
           崔航 Hang Cui
           秦语 Yu Qin
           宋欣佳怡 Xinjiayi Song
           张赫 He Zhang
           马春瑞 Chunrui Ma
           刘颖伦 Yinglun Liu
           陆妍淇 Yanqi Lu
           张彬彬 Binbin Zhang
           张超人 Chaoren Zhang
           周宸佳 Chenjia Zhou
           刘钰瑾 Yujin Liu
           章涛 Tao Zhang
           胡浩博 Haobo Hu
           小小白 Xuwei Guo
           蔡纲 Gang Cai
           顾凯俐 Kelly Gu
           傅隽 Jun Fu
           杨曼琴 Lucy Yang
           杨雪莹 Xueying Yang
           宋雨晴
           刘倩妤 Qianyu Liu
           黄柏钧 Denny Huang
           程弘
           冷海鸣 Haiming Leng
           刘顾浩
           杨裕 Yu Yang
           边城
           陈洁 Jie Chen
           刘杭丽
           李欣泽 Xinze Li
           张皓宇


    ◎标  签 爱情 | 青春 | 校园 | 小说改编 | 偶像剧 | 电视剧 | 网游 | 国产剧

    ◎简  介  

      贝微微(郑爽 饰)是校园里的系花加学霸,而在虚拟的网络世界中,她是侠肝义胆仗剑江湖的红衣女侠“芦苇微微”。在游戏中,贝微微结识了“真水无香”,两人结为侠侣,没想到贝微微却因为不愿以真面目示人而遭到了真水无香的抛弃,在游戏中莫名其妙“被离婚”的贝微微之后又遇见了江湖高手“一笑奈何”,两人为了完成游戏任务而走到了一起。
      让贝微微没有想到的是,一笑奈何的线下身份,竟然是自己的同校师兄肖奈(杨洋 饰),肖奈是校园中的风云人物,篮球队的主力军,两人的情谊从线上发展到线下,一段跨越了虚拟与现实的感情就此拉开序幕。
    1. General
    2. Complete name                  : E:\影视\微微一笑很倾城\微一笑很倾城.Love.O2O.S01E01.Complete.4K.youku.WEB.DL.H265.AAC.Ryu.mp4
    3. Format                         : MPEG-4
    4. Format profile                 : Base Media
    5. Codec ID                       : isom (isom/iso2/mp41)
    6. File size                      : 1.68 GiB
    7. Duration                       : 44 min 25 s
    8. Overall bit rate               : 5 399 kb/s
    9. Writing application            : Lavf57.83.100

    10. Video
    11. ID                             : 1
    12. Format                         : HEVC
    13. Format/Info                    : High Efficiency Video Coding
    14. Format profile                 : Main@L5@Main
    15. Codec ID                       : hev1
    16. Codec ID/Info                  : High Efficiency Video Coding
    17. Duration                       : 44 min 25 s
    18. Bit rate                       : 5 204 kb/s
    19. Width                          : 3 840 pixels
    20. Height                         : 2 160 pixels
    21. Display aspect ratio           : 16:9
    22. Frame rate mode                : Constant
    23. Frame rate                     : 25.000 FPS
    24. Color space                    : YUV
    25. Chroma subsampling             : 4:2:0
    26. Bit depth                      : 8 bits
    27. Bits/(Pixel*Frame)             : 0.025
    28. Stream size                    : 1.61 GiB (96%)
    29. Color range                    : Limited
    30. Color primaries                : BT.709
    31. Transfer characteristics       : BT.709
    32. Matrix coefficients            : BT.709

    33. Audio
    34. ID                             : 2
    35. Format                         : AAC
    36. Format/Info                    : Advanced Audio Codec
    37. Format profile                 : LC
    38. Codec ID                       : mp4a-40-2
    39. Duration                       : 44 min 25 s
    40. Bit rate mode                  : Constant
    41. Bit rate                       : 192 kb/s
    42. Channel(s)                     : 2 channels
    43. Channel positions              : Front: L R
    44. Sampling rate                  : 48.0 kHz
    45. Frame rate                     : 46.875 FPS (1024 SPF)
    46. Compression mode               : Lossy
    47. Stream size                    : 60.2 MiB (4%)
    48. Default                        : Yes
    49. Alternate group                : 1

    复制代码






    购买主题 本主题需向作者支付 40 大洋 才能浏览
    回复

    使用道具 举报

  • TA的每日心情
    开心
    2020-5-22 00:14
  • 签到天数: 137 天

    [LV.7]常住居民III

    8

    主题

    1819

    帖子

    149

    积分

    中级影迷

    Rank: 3Rank: 3

    积分
    149
    发表于 2020-5-21 00:20:59 | 显示全部楼层
    好资源 支持
    回复

    使用道具 举报

  • TA的每日心情
    开心
    8 小时前
  • 签到天数: 97 天

    [LV.6]常住居民II

    2

    主题

    423

    帖子

    30

    积分

    初级影迷

    Rank: 2

    积分
    30
    发表于 2020-5-22 13:54:54 | 显示全部楼层
    感谢楼主分享!
    回复

    使用道具 举报

  • TA的每日心情
    开心
    12 小时前
  • 签到天数: 51 天

    [LV.5]常住居民I

    0

    主题

    610

    帖子

    85

    积分

    中级影迷

    Rank: 3Rank: 3

    积分
    85
    发表于 2020-5-24 19:47:33 | 显示全部楼层
    感谢分享。
    回复

    使用道具 举报

    您需要登录后才可以回帖 登录 | 立即注册

    本版积分规则

    QQ|Archiver|手机版|小黑屋|影迷乐园  

    GMT+8, 2020-6-6 21:27 , Processed in 0.132309 second(s), 31 queries .

    Powered by Discuz! X3.3

    © 2001-2017 Comsenz Inc.

    快速回复 返回顶部 返回列表