请选择 进入手机版 | 继续访问电脑版

YMLY-影迷乐园-特效字幕 蓝光原盘 1080P 高清动漫电影电视剧

 找回密码
 立即注册
搜索
查看: 78|回复: 6

[网剧] [磁力+百度][2015][1080P][掩体][国语中英字幕][赵菲.赵晓东][16集全][MKV][5.87GB][bunkers.2015.WEB-DL.1080p.x264.AAC-HQC]

[复制链接]
  • TA的每日心情
    奋斗
    2020-2-21 00:36
  • 签到天数: 656 天

    [LV.9]以坛为家II

    6049

    主题

    7421

    帖子

    3万

    积分

    超级版主

    Rank: 16Rank: 16Rank: 16Rank: 16

    积分
    31337

    内测勋章最佳新人十二生肖之猴VIP包月勋章影迷男神小土豪勋章土豪勋章富甲一方精华勋章金话筒主题达人灌水之王

    发表于 2020-5-22 12:25:49 | 显示全部楼层 |阅读模式


    ◎片  名 掩体
    ◎年  代 2015
    ◎产  地 中国大陆
    ◎类  别 科幻 / 悬疑
    ◎语  言 汉语普通话
    ◎上映日期 2015-11-13(中国大陆)
    ◎豆瓣评分 0/10 from 0 users
    ◎豆瓣链接 https://movie.douban.com/subject/26307792/
    ◎集  数 16
    ◎片  长 20分钟
    ◎导  演 殷德义
    ◎编  剧 殷德义
    ◎主  演 赵菲
           赵晓东
           李沛欣
           孙易铖
           张春龙
           李小波

    ◎标  签 科幻 | 良心之作,预算不高,中国首部末日科幻网剧 | 悬疑 | 国产电视剧 | 殷德义 | 剧情 | 知乎 | 大陆

    ◎简  介

      公元2028年,人类遭遇了重大危机,一种无法抵御的病毒在全球肆虐,从而让人类陷入了末日浩劫之中。
      有一部分年轻科学家,早在多年前就已经有过这样的预案,可惜这一次病毒来得太快,他们有些措手不及。在最后关头,人类最后的时刻,他们发现了病毒的唯一特性,那就是:在阳光无法照射到的宿主体内,病毒的存活时间最多只能存活237小时。于是他们研发了237疫苗。但此时地球上的幸存者已经寥寥无几。
      他们找到了号称『黑暗科学界』的红袍公司。
      红袍公司有一个最新的科学实验即将展开。因为人类文明的高度发达,因为基因的命中注定,大多数暴力恶性犯罪的后代将过着一种被政府时刻监控的生活。这种新时代的血统论被科学一再的证明,并在整个人类社会中达成了共识。
      一群有理想的年轻科学家试图通过基因休克重组疗法以及擦除记忆等方式让这些不可救药的人获得新生。为了得到试验品(人类),他们通过政治黑金收买的方式,找到了实验对象。
      这些实验对象都是已经被判处了死刑的犯人,在执行死刑的那一刻,他们被注射了一种特殊的毒素,从而欺骗了所有法医。这些死刑犯被通过特殊渠道运送到了这个偏远的沙漠城市里。这里有一个戒备森严的仓库。
      这些死刑犯人有明显的人类缺陷,他们在欲望、暴力、性癖好、个体情绪等各方面都有着鲜明的特征。
      为了人类的传承,科学家们决定把疫苗注射给这些存在各种缺陷的幸存者。当然,也包括几十位科学家。他们与罪犯不同,这些科学家为自己找到了一个非常好的地下掩体,并有充足的食物和水。而罪犯被关押的地方完全不同,食物和水是有限的。
      注射了237疫苗的77个罪犯,活了下来。这里面包括受过特殊训练的安保人员。当他们醒来时,他们发现自己完全失去了记忆,所有人都不记得今夕是何年,也不知道如何逃脱出去。
      食物、水即将枯竭。他们之间相继也产生了信任危机。而地下的科学家们,也要试图走出掩体。
      接下来,他们将会何去何从?逃出去后,他们面对的,又将是一个怎样的世界?
      故事,就从这些囚犯醒来开始……
    1. General
    2. Format                         : Matroska
    3. Format version                 : Version 4
    4. File size                      : 373 MiB
    5. Duration                       : 22 min 27 s
    6. Overall bit rate               : 2 321 kb/s
    7. Encoded date                   : UTC 2015-11-14 11:54:43
    8. Writing application            : mkvmerge v8.2.0 ('World of Adventure') 64bit
    9. Writing library                : libebml v1.3.1 + libmatroska v1.4.2

    10. Video
    11. ID                             : 1
    12. Format                         : AVC
    13. Format/Info                    : Advanced Video Codec
    14. Format profile                 : High@L4
    15. Format settings                : CABAC / 4 Ref Frames
    16. Format settings, CABAC         : Yes
    17. Format settings, Reference fra : 4 frames
    18. Codec ID                       : V_MPEG4/ISO/AVC
    19. Duration                       : 22 min 27 s
    20. Bit rate                       : 2 328 kb/s
    21. Width                          : 1 920 pixels
    22. Height                         : 1 072 pixels
    23. Display aspect ratio           : 16:9
    24. Frame rate mode                : Constant
    25. Frame rate                     : 25.000 FPS
    26. Color space                    : YUV
    27. Chroma subsampling             : 4:2:0
    28. Bit depth                      : 8 bits
    29. Scan type                      : Progressive
    30. Bits/(Pixel*Frame)             : 0.045
    31. Stream size                    : 361 MiB (97%)
    32. Writing library                : x264 core 128
    33. Encoding settings              : cabac=1 / ref=4 / deblock=1:0:0 / analyse=0x3:0x133 / me=umh / subme=9 / psy=0 / mixed_ref=1 / me_range=48 / chroma_me=1 / trellis=1 / 8x8dct=1 / cqm=0 / deadzone=21,11 / fast_pskip=1 / chroma_qp_offset=0 / threads=24 / lookahead_threads=4 / sliced_threads=0 / nr=6 / decimate=1 / interlaced=0 / bluray_compat=0 / constrained_intra=0 / bframes=4 / b_pyramid=2 / b_adapt=1 / b_bias=100 / direct=3 / weightb=1 / open_gop=0 / weightp=2 / keyint=250 / keyint_min=25 / scenecut=40 / intra_refresh=0 / rc_lookahead=40 / rc=2pass / mbtree=1 / bitrate=2328 / ratetol=1.0 / qcomp=0.60 / qpmin=10 / qpmax=51 / qpstep=4 / cplxblur=20.0 / qblur=0.5 / vbv_maxrate=4656 / vbv_bufsize=4656 / nal_hrd=none / ip_ratio=1.40 / aq=2:0.60
    34. Default                        : Yes
    35. Forced                         : No

    36. Audio
    37. ID                             : 2
    38. Format                         : AAC LC
    39. Format/Info                    : Advanced Audio Codec Low Complexity
    40. Codec ID                       : A_AAC-2
    41. Duration                       : 22 min 27 s
    42. Bit rate                       : 69.5 kb/s
    43. Channel(s)                     : 1 channel
    44. Channel layout                 : C
    45. Sampling rate                  : 44.1 kHz
    46. Frame rate                     : 43.066 FPS (1024 SPF)
    47. Compression mode               : Lossy
    48. Delay relative to video        : -23 ms
    49. Stream size                    : 11.2 MiB (3%)
    50. Default                        : Yes
    51. Forced                         : No
    复制代码






    购买主题 本主题需向作者支付 10 大洋 才能浏览
    郑重声明:
    本人提供的所有影视作品均是在网上搜集,任何涉及商业盈利目的均不得使用,否则产生的一切后果将由您自己承担!
    本人不对本人所发布的任何内容负任何法律责任!该下载内容仅做宽带测试使用,请在下载后24小时内删除。请购买正版!
    本人列出的文件没有保存在本站的服务器上,本人仅负责连接,本人对被传播文件的内容一无所知。
    如侵犯视频原作者或发行商版权,请联系本人删除!
    回复

    使用道具 举报

  • TA的每日心情
    开心
    8 小时前
  • 签到天数: 85 天

    [LV.6]常住居民II

    0

    主题

    822

    帖子

    68

    积分

    初级影迷

    Rank: 2

    积分
    68
    发表于 2020-5-22 12:45:55 | 显示全部楼层
    多谢分享!
    回复

    使用道具 举报

  • TA的每日心情
    开心
    21 小时前
  • 签到天数: 52 天

    [LV.5]常住居民I

    0

    主题

    698

    帖子

    64

    积分

    初级影迷

    Rank: 2

    积分
    64
    发表于 2020-5-22 13:14:53 | 显示全部楼层
    感谢分享。。
    回复

    使用道具 举报

  • TA的每日心情
    开心
    昨天 22:25
  • 签到天数: 132 天

    [LV.7]常住居民III

    6

    主题

    1468

    帖子

    253

    积分

    超级影迷

    Rank: 6Rank: 6

    积分
    253
    发表于 2020-5-22 15:19:15 | 显示全部楼层
    找掩体,快找掩体!
    回复

    使用道具 举报

  • TA的每日心情
    开心
    12 小时前
  • 签到天数: 51 天

    [LV.5]常住居民I

    0

    主题

    610

    帖子

    85

    积分

    中级影迷

    Rank: 3Rank: 3

    积分
    85
    发表于 2020-5-22 15:25:21 | 显示全部楼层
    感谢分享。
    回复

    使用道具 举报

  • TA的每日心情
    开心
    4 天前
  • 签到天数: 15 天

    [LV.4]偶尔看看III

    2

    主题

    89

    帖子

    40

    积分

    初级影迷

    Rank: 2

    积分
    40
    发表于 2020-5-23 00:24:13 | 显示全部楼层
    感谢分享。期待
    回复

    使用道具 举报

  • TA的每日心情
    难过
    4 天前
  • 签到天数: 5 天

    [LV.2]偶尔看看I

    0

    主题

    51

    帖子

    6

    积分

    入门影迷

    Rank: 1

    积分
    6
    发表于 2020-5-23 10:31:22 | 显示全部楼层
    感谢分享
    回复

    使用道具 举报

    您需要登录后才可以回帖 登录 | 立即注册

    本版积分规则

    QQ|Archiver|手机版|小黑屋|影迷乐园  

    GMT+8, 2020-6-6 21:52 , Processed in 0.148327 second(s), 33 queries .

    Powered by Discuz! X3.3

    © 2001-2017 Comsenz Inc.

    快速回复 返回顶部 返回列表