请选择 进入手机版 | 继续访问电脑版

YMLY-影迷乐园-特效字幕 蓝光原盘 1080P 高清动漫电影电视剧

 找回密码
 立即注册
搜索
查看: 538|回复: 41

[美国] [百度][2018][头号玩家.60fps重制版][外挂ASS特效双语][11.52GB][MKV][Ready.Player.One.2018.BDRip.1080p.60.fps.and77200]

[复制链接]
  • TA的每日心情
    慵懒
    9 小时前
  • 签到天数: 146 天

    [LV.7]常住居民III

    201

    主题

    672

    帖子

    1717

    积分

    超级版主

    Rank: 16Rank: 16Rank: 16Rank: 16

    积分
    1717

    超版勋章版主勋章土豪勋章小土豪勋章最佳新人十二生肖之猴双鱼座勋章百分百好孩子精华勋章

    发表于 2020-6-2 19:22:09 | 显示全部楼层 |阅读模式
    默认为俄语音轨,次音轨为英语,请自行切换

    不满意AC3音轨的,可以自行用封装工具替换自己满意的音轨 时间轴和普通蓝光版一样

    60帧纵享丝滑,特别是这种群戏场面多的电影是非常爽的

    外挂字幕为简单特效双语ASS字幕 转载自字幕库




    ◎译  名 头号玩家 / 一号玩家 / 一级玩家(台) / 挑战者1号(港) / 玩家一号
    ◎片  名 Ready Player One
    ◎年  代 2018
    ◎产  地 美国
    ◎类  别 动作 / 科幻 / 冒险
    ◎语  言 英语 / 日语 / 汉语普通话
    ◎上映日期 2018-03-11(西南偏南电影节) / 2018-03-29(美国) / 2018-03-30(中国大陆)
    ◎IMDb评分  7.5/10 from 330043 users
    ◎IMDb链接  https://www.imdb.com/title/tt1677720
    ◎豆瓣评分 8.7/10 from 944483 users
    ◎豆瓣链接 https://movie.douban.com/subject/4920389/
    ◎片  长 140分钟
    ◎导  演 史蒂文·斯皮尔伯格 Steven Spielberg
    ◎编  剧 扎克·佩恩 Zak Penn / 恩斯特·克莱恩 Ernest Cline
    ◎主  演 泰伊·谢里丹 Tye Sheridan
           奥利维亚·库克 Olivia Cooke
           本·门德尔森 Ben Mendelsohn
           马克·里朗斯 Mark Rylance
           丽娜·维特 Lena Waithe
           森崎温 Win Morisaki
           菲利普·赵 Philip Zhao
           西蒙·佩吉 Simon Pegg
           T·J·米勒 T.J. Miller
           汉娜·乔恩-卡门 Hannah John-Kamen
           拉尔夫·尹爱森 Ralph Ineson
           苏珊·林奇 Susan Lynch
           克莱尔·希金斯 Clare Higgins
           劳伦斯·斯佩尔曼 Laurence Spellman
           佩蒂塔·维克斯 Perdita Weeks
           艾萨克·安德鲁斯 Isaac Andrews


    ◎标  签 科幻 | 虚拟现实 | 游戏 | VR | 美国 | 冒险 | 2018 | 动作

    ◎简  介  

      故事发生在2045年,虚拟现实技术已经渗透到了人类生活的每一个角落。詹姆斯哈利迪(马克·里朗斯 Mark Rylance 饰)一手建造了名为“绿洲”的虚拟现实游戏世界,临终前,他宣布自己在游戏中设置了一个彩蛋,找到这枚彩蛋的人即可成为绿洲的继承人。要找到这枚彩蛋,必须先获得三把钥匙,而寻找钥匙的线索就隐藏在詹姆斯的过往之中。
      韦德(泰尔·谢里丹 Tye Sheridan 饰)、艾奇(丽娜·维特 Lena Waithe 饰)、大东(森崎温 饰)和修(赵家正 饰)是游戏中的好友,和之后遇见的阿尔忒弥斯(奥利维亚·库克 Olivia Cooke 饰)一起,五人踏上了寻找彩蛋的征程。他们所要对抗的,是名为诺兰索伦托(本·门德尔森 Ben Mendelsohn 饰)的大资本家。

    ◎获奖情况  

      第91届奥斯卡金像奖(2019)
      最佳视觉效果(提名) 格拉迪·科菲 / 马修·E·巴特勒 / 罗杰·盖耶特 / 大卫·谢克

      第72届英国电影学院奖(2019)
      电影奖 最佳特殊视觉效果(提名)

      第27届MTV电影奖(2018)
      MTV电影奖 最佳吻戏(提名) 泰伊·谢里丹 / 奥利维亚·库克
      MTV电影奖 最佳银幕组合(提名) 丽娜·维特 / 森崎温 / 奥利维亚·库克 / 泰伊·谢里丹 / 赵家正

      第61届日本电影蓝丝带奖(2019)
      年度十佳海外影片

      第23届美国艺术指导工会奖(2019)
      电影奖 最佳幻想电影艺术指导(提名) 亚当·斯托克豪森

      第66届美国音效剪辑协会奖(2019)
      金卷轴奖 最佳电影音效剪辑(提名)

      第17届美国视觉效果协会奖(2019)
      最佳特效电影视觉效果(提名)
      最佳真人电影CG动画角色(提名)
      最佳真人电影CG背景
      最佳电影虚拟摄影
      最佳电影模型(提名)

      第24届美国评论家选择电影奖(2019)
      最佳动作片(提名)
      最佳视觉效果(提名)

      第23届金卫星奖(2019)
      电影部门 最佳视觉效果(提名)

      第17届华盛顿影评人协会奖(2018)
      最佳动作捕捉表演(提名) 泰伊·谢里丹

      第5届豆瓣电影年度榜单(2018)
      评分最高的外语电影
      最受关注的院线电影(提名)
      评分最高的科幻/动作片
      年度电影原声(提名)

      第4届豆瓣电影年度榜单(2017)
      最值得期待的外语电影(提名)

    截图只是意思下,60帧电影还是得自己体会







    外挂特效字幕预览






    1. General
    2. Unique ID : 67792218345541643783920369334785197081 (0x33004E6BB231BCBD3F36DC6029C4C419)
    3. Complete name : E:Ready.Player.One.2018.BDRip.1080p.60.fps.and77200.mkv
    4. Format : Matroska
    5. Format version : Version 4 / Version 2
    6. File size : 11.5 GiB
    7. Duration : 2h 19mn
    8. Overall bit rate : 11.8 Mbps
    9. Movie name : Первому игроку приготовиться.2018 - and77200
    10. Encoded date : UTC 2018-07-12 09:17:05
    11. Writing application : mkvmerge v20.0.0 ('I Am The Sun') 64-bit
    12. Writing library : libebml v1.3.5 + libmatroska v1.4.8
    13. DURATION : 02:08:23.329000000
    14. NUMBER_OF_FRAMES : 1856
    15. NUMBER_OF_BYTES : 60458
    16. _STATISTICS_WRITING_APP : mkvmerge v20.0.0 ('I Am The Sun') 64-bit
    17. _STATISTICS_WRITING_DATE_UTC : 2018-07-12 09:17:05
    18. _STATISTICS_TAGS : BPS DURATION NUMBER_OF_FRAMES NUMBER_OF_BYTES



    19. Video
    20. ID : 1
    21. Format : AVC
    22. Format/Info : Advanced Video Codec
    23. Format profile : High@L4.1
    24. Format settings, CABAC : Yes
    25. Format settings, ReFrames : 4 frames
    26. Codec ID : V_MPEG4/ISO/AVC
    27. Duration : 2h 19mn
    28. Bit rate : 11.0 Mbps
    29. Width : 1 920 pixels
    30. Height : 804 pixels
    31. Display aspect ratio : 2.40:1
    32. Frame rate : 59.940 fps
    33. Color space : YUV
    34. Chroma subsampling : 4:2:0
    35. Bit depth : 8 bits
    36. Scan type : Progressive
    37. Bits/(Pixel*Frame) : 0.119
    38. Stream size : 10.5 GiB (91%)
    39. Writing library : x264 core 146 r2538 121396c
    40. Encoding settings : cabac=1 / ref=4 / deblock=1:0:0 / analyse=0x3:0x113 / me=umh / subme=9 / psy=1 / psy_rd=1.00:0.10 / mixed_ref=1 / me_range=32 / chroma_me=1 / trellis=1 / 8x8dct=1 / cqm=0 / deadzone=21,11 / fast_pskip=0 / chroma_qp_offset=-3 / threads=6 / lookahead_threads=1 / sliced_threads=0 / nr=0 / decimate=1 / interlaced=0 / bluray_compat=0 / constrained_intra=0 / bframes=16 / b_pyramid=2 / b_adapt=2 / b_bias=0 / direct=3 / weightb=1 / open_gop=0 / weightp=2 / keyint=250 / keyint_min=25 / scenecut=40 / intra_refresh=0 / rc_lookahead=40 / rc=2pass / mbtree=1 / bitrate=11000 / ratetol=1.0 / qcomp=0.60 / qpmin=0 / qpmax=69 / qpstep=4 / cplxblur=20.0 / qblur=0.5 / vbv_maxrate=14000 / vbv_bufsize=14000 / nal_hrd=none / filler=0 / ip_ratio=1.40 / aq=1:1.00
    41. Language : English
    42. Default : Yes
    43. Forced : No
    44. DURATION : 02:19:58.199000000
    45. NUMBER_OF_FRAMES : 503388
    46. NUMBER_OF_BYTES : 11490838179
    47. _STATISTICS_WRITING_APP : mkvmerge v20.0.0 ('I Am The Sun') 64-bit
    48. _STATISTICS_WRITING_DATE_UTC : 2018-07-12 09:17:05
    49. _STATISTICS_TAGS : BPS DURATION NUMBER_OF_FRAMES NUMBER_OF_BYTES

    50. Audio #1
    51. ID : 2
    52. Format : AC-3
    53. Format/Info : Audio Coding 3
    54. Mode extension : CM (complete main)
    55. Codec ID : A_AC3
    56. Duration : 2h 19mn
    57. Bit rate mode : Constant
    58. Bit rate : 384 Kbps
    59. Channel(s) : 6 channels
    60. Channel positions : Front: L C R, Side: L R, LFE
    61. Sampling rate : 48.0 KHz
    62. Bit depth : 16 bits
    63. Compression mode : Lossy
    64. Stream size : 384 MiB (3%)
    65. Title : iTunes
    66. Language : Russian
    67. Default : Yes
    68. Forced : Yes

    69. Audio #2
    70. ID : 3
    71. Format : AC-3
    72. Format/Info : Audio Coding 3
    73. Mode extension : CM (complete main)
    74. Codec ID : A_AC3
    75. Duration : 2h 19mn
    76. Bit rate mode : Constant
    77. Bit rate : 448 Kbps
    78. Channel(s) : 6 channels
    79. Channel positions : Front: L C R, Side: L R, LFE
    80. Sampling rate : 48.0 KHz
    81. Bit depth : 16 bits
    82. Compression mode : Lossy
    83. Stream size : 449 MiB (4%)
    84. Title : Original
    85. Language : English
    86. Default : No
    87. Forced : No

    88. Text #1
    89. ID : 4
    90. Format : UTF-8
    91. Codec ID : S_TEXT/UTF8
    92. Codec ID/Info : UTF-8 Plain Text
    93. Title : Forced
    94. Language : Russian
    95. Default : Yes
    96. Forced : Yes

    97. Text #2
    98. ID : 5
    99. Format : UTF-8
    100. Codec ID : S_TEXT/UTF8
    101. Codec ID/Info : UTF-8 Plain Text
    102. Title : Full
    103. Language : Russian
    104. Default : No
    105. Forced : No

    106. Text #3
    107. ID : 6
    108. Format : UTF-8
    109. Codec ID : S_TEXT/UTF8
    110. Codec ID/Info : UTF-8 Plain Text
    111. Title : Full v.2
    112. Language : Russian
    113. Default : No
    114. Forced : No

    115. Text #4
    116. ID : 7
    117. Format : UTF-8
    118. Codec ID : S_TEXT/UTF8
    119. Codec ID/Info : UTF-8 Plain Text
    120. Title : Full
    121. Language : English
    122. Default : No
    123. Forced : No

    124. Menu
    125. 00:00:00.000 : en:00:00:00.000
    126. 00:10:08.233 : en:00:10:08.233
    127. 00:20:18.259 : en:00:20:18.259
    128. 00:30:37.627 : en:00:30:37.627
    129. 00:40:38.269 : en:00:40:38.269
    130. 00:50:08.964 : en:00:50:08.964
    131. 01:03:01.778 : en:01:03:01.778
    132. 01:11:55.269 : en:01:11:55.269
    133. 01:20:14.727 : en:01:20:14.727
    134. 01:30:58.328 : en:01:30:58.328
    135. 01:43:26.742 : en:01:43:26.742
    136. 01:53:02.150 : en:01:53:02.150
    137. 02:04:20.161 : en:02:04:20.161
    138. 02:09:17.249 : en:02:09:17.249
    复制代码

    购买主题 已有 23 人购买  本主题需向作者支付 40 大洋 才能浏览
    声明:本人制作或发布的所有资源仅限论坛会员测试带宽使用!请在测试后24小时内删除!
    严禁非法传播或用于商业用途,对用于商业用途所产生的法律责任,由使用者自负!
    回复

    使用道具 举报

  • TA的每日心情
    奋斗
    2020-5-29 07:31
  • 签到天数: 25 天

    [LV.4]偶尔看看III

    6

    主题

    2306

    帖子

    132

    积分

    ★★VIP6★★

    Rank: 22Rank: 22Rank: 22Rank: 22Rank: 22Rank: 22

    积分
    132
    发表于 2020-6-2 20:23:40 | 显示全部楼层
    其实SVP4能够做到每部电影60帧播放

    点评

    那玩意玩过,太麻烦BUG也多,不是所有的电影都适合60帧  发表于 2020-6-2 20:27
    回复

    使用道具 举报

  • TA的每日心情
    无聊
    昨天 17:59
  • 签到天数: 80 天

    [LV.6]常住居民II

    45

    主题

    289

    帖子

    291

    积分

    超级影迷

    Rank: 6Rank: 6

    积分
    291

    最佳新人小土豪勋章

    发表于 2020-6-2 22:17:46 | 显示全部楼层
    哇哦,爱了
    我爱你三千遍
    回复

    使用道具 举报

  • TA的每日心情
    擦汗
    前天 07:57
  • 签到天数: 133 天

    [LV.7]常住居民III

    51

    主题

    311

    帖子

    611

    积分

    专业影迷

    Rank: 8Rank: 8

    积分
    611

    最佳新人影迷男神

    发表于 2020-6-2 22:55:45 | 显示全部楼层
    这个好,支持60FPS
    回复

    使用道具 举报

  • TA的每日心情
    无聊
    昨天 17:59
  • 签到天数: 80 天

    [LV.6]常住居民II

    45

    主题

    289

    帖子

    291

    积分

    超级影迷

    Rank: 6Rank: 6

    积分
    291

    最佳新人小土豪勋章

    发表于 2020-6-2 23:02:22 | 显示全部楼层
    嘿嘿,周末就看,爱了爱了呀
    我爱你三千遍
    回复

    使用道具 举报

  • TA的每日心情
    开心
    半小时前
  • 签到天数: 362 天

    [LV.8]以坛为家I

    25

    主题

    575

    帖子

    101

    积分

    中级影迷

    Rank: 3Rank: 3

    积分
    101
    发表于 2020-6-2 23:08:42 | 显示全部楼层
    感谢分享!
    回复

    使用道具 举报

  • TA的每日心情
    开心
    昨天 10:05
  • 签到天数: 189 天

    [LV.7]常住居民III

    6

    主题

    1881

    帖子

    393

    积分

    超级影迷

    Rank: 6Rank: 6

    积分
    393
    发表于 2020-6-2 23:32:30 | 显示全部楼层
    感谢分享头号玩家。
    回复

    使用道具 举报

  • TA的每日心情
    开心
    8 小时前
  • 签到天数: 100 天

    [LV.6]常住居民II

    1

    主题

    1050

    帖子

    199

    积分

    高级影迷

    Rank: 4

    积分
    199
    发表于 2020-6-2 23:58:51 | 显示全部楼层
    感谢分享,辛苦了
    回复

    使用道具 举报

  • TA的每日心情

    2019-10-24 00:15
  • 签到天数: 5 天

    [LV.2]偶尔看看I

    0

    主题

    693

    帖子

    51

    积分

    初级影迷

    Rank: 2

    积分
    51
    发表于 2020-6-3 00:30:20 | 显示全部楼层
    感谢分享         
    回复

    使用道具 举报

  • TA的每日心情
    擦汗
    8 小时前
  • 签到天数: 312 天

    [LV.8]以坛为家I

    0

    主题

    3313

    帖子

    180

    积分

    高级影迷

    Rank: 4

    积分
    180
    发表于 2020-6-3 06:14:47 | 显示全部楼层
    谢谢分享好东西
    回复

    使用道具 举报

    您需要登录后才可以回帖 登录 | 立即注册

    本版积分规则

    QQ|Archiver|手机版|小黑屋|影迷乐园  

    GMT+8, 2020-8-9 09:39 , Processed in 0.181250 second(s), 36 queries .

    Powered by Discuz! X3.3

    © 2001-2017 Comsenz Inc.

    快速回复 返回顶部 返回列表