请选择 进入手机版 | 继续访问电脑版

YMLY-影迷乐园-特效字幕 蓝光原盘 1080P 高清动漫电影电视剧

 找回密码
 立即注册
搜索
查看: 2921|回复: 58

[大陆] [百度][1986][2160P][葫芦兄弟][4K无水印收藏版][13集全][国语无字][3.26GB][MP4]

  [复制链接]
  • TA的每日心情

    2020-8-15 07:51
  • 签到天数: 139 天

    [LV.7]常住居民III

    128

    主题

    458

    帖子

    2072

    积分

    ★★发布员★★

    积分
    2072

    最佳新人影迷男神

    发表于 2020-6-14 12:38:05 | 显示全部楼层 |阅读模式


    ◎译  名 葫芦娃
    ◎片  名 葫芦兄弟
    ◎年  代 1986
    ◎产  地 中国大陆
    ◎类  别 动画 / 儿童
    ◎语  言 汉语普通话
    ◎上映日期 1986-01(中国大陆)
    ◎豆瓣评分 9.0/10 from 94168 users
    ◎豆瓣链接 https://movie.douban.com/subject/1428576/
    ◎集  数 13
    ◎片  长 10分钟
    ◎导  演 胡进庆 Jinqing Hu / 葛桂云 Guiyun Ge / 周克勤 Keqin Zhou
    ◎编  剧 姚忠礼 Zhongli Yao / 杨玉良 Yuliang Yang / 墨犊 Du Mo

    ◎标  签 动画 | 国产动画 | 童年 | 经典 | 中国 | 葫芦兄弟 | 动画片 | 大陆

    ◎简  介

      一个善良的老爷爷种了一棵葫芦树,在他的悉心照顾下,葫芦藤很快结出了七颗大葫芦。葫芦们都很有灵性,老爷爷来了他们争先恐后的叫爷爷,老爷爷十分开心。然而一天,山里的蛇精将老爷爷捉走了,葫芦们看着十分着急,却也无能为力。随后,葫芦们一个个开始成熟了,一天,最大的那个葫芦掉在地上,一个葫芦娃从里面蹦了出来。他向兄弟们挥挥手,决定单枪匹马闯蛇洞去救出爷爷。他能成功吗?

    1. General
    2. Complete name                  : E:\m3u8_dl_GUI v0.3.0_x86\葫芦兄弟.4K\01.mp4
    3. Format                         : MPEG-4
    4. Format profile                 : Base Media
    5. Codec ID                       : isom (isom/iso2/mp41)
    6. File size                      : 203 MiB
    7. Duration                       : 10 min 11 s
    8. Overall bit rate mode          : Variable
    9. Overall bit rate               : 2 791 kb/s
    10. Writing application            : Lavf57.83.100

    11. Video
    12. ID                             : 1
    13. Format                         : HEVC
    14. Format/Info                    : High Efficiency Video Coding
    15. Format profile                 : Main@L5@Main
    16. Codec ID                       : hev1
    17. Codec ID/Info                  : High Efficiency Video Coding
    18. Duration                       : 10 min 11 s
    19. Bit rate                       : 2 656 kb/s
    20. Width                          : 3 840 pixels
    21. Height                         : 2 160 pixels
    22. Display aspect ratio           : 16:9
    23. Frame rate mode                : Variable
    24. Frame rate                     : 24.000 FPS
    25. Minimum frame rate             : 23.994 FPS
    26. Maximum frame rate             : 24.006 FPS
    27. Color space                    : YUV
    28. Chroma subsampling             : 4:2:0
    29. Bit depth                      : 8 bits
    30. Bits/(Pixel*Frame)             : 0.013
    31. Stream size                    : 193 MiB (95%)

    32. Audio
    33. ID                             : 2
    34. Format                         : AAC
    35. Format/Info                    : Advanced Audio Codec
    36. Format profile                 : LC
    37. Codec ID                       : mp4a-40-2
    38. Duration                       : 10 min 11 s
    39. Bit rate mode                  : Variable
    40. Bit rate                       : 128 kb/s
    41. Maximum bit rate               : 135 kb/s
    42. Channel(s)                     : 2 channels
    43. Channel positions              : Front: L R
    44. Sampling rate                  : 48.0 kHz
    45. Frame rate                     : 46.875 FPS (1024 SPF)
    46. Compression mode               : Lossy
    47. Stream size                    : 9.32 MiB (5%)
    48. Default                        : Yes
    49. Alternate group                : 1

    复制代码











    PS:此版本是腾讯视频扒下来的无水印流媒体版,很清晰,顺便送一部 东方电影的录制版,区别可以看参数


    1. 东方电影频道高清修复,不同于2008电影版,13集的连续剧版本没有删节,是目前最完美的版本!


    2. 画质清晰到拍摄制作时的每一粒灰尘都清清楚楚
    3. 画面分辨率:1920*1080(16:9标准1080P高清)

    4. 视频码率:7.776M/S,每秒25帧

    5. 音频信息:320K,48kHz,16位AC3立体声
    复制代码


    个人还是喜欢看2160P的
    购买主题 已有 43 人购买  本主题需向作者支付 30 大洋 才能浏览
    回复

    使用道具 举报

  • TA的每日心情
    开心
    昨天 18:47
  • 签到天数: 216 天

    [LV.7]常住居民III

    19

    主题

    1373

    帖子

    687

    积分

    专业影迷

    Rank: 8Rank: 8

    积分
    687

    小土豪勋章土豪勋章

    发表于 2020-6-14 12:42:33 | 显示全部楼层
    楼主经常回忆经典嘛
    回复

    使用道具 举报

  • TA的每日心情
    无聊
    6 小时前
  • 签到天数: 297 天

    [LV.8]以坛为家I

    302

    主题

    1018

    帖子

    4590

    积分

    超级版主

    Rank: 16Rank: 16Rank: 16Rank: 16

    积分
    4590

    超版勋章版主勋章土豪勋章小土豪勋章最佳新人十二生肖之猴双鱼座勋章百分百好孩子精华勋章知识勋章音乐之星主题达人

    发表于 2020-6-14 13:03:27 | 显示全部楼层
    谢谢分享,不过收藏的话只要是WEB-DL的一律PASS
    尤其是腾讯优酷之类的拉伸4K+128KAAC音频吃不消
    回复

    使用道具 举报

  • TA的每日心情
    无聊
    5 小时前
  • 签到天数: 203 天

    [LV.7]常住居民III

    52

    主题

    490

    帖子

    560

    积分

    专业影迷

    Rank: 8Rank: 8

    积分
    560

    最佳新人小土豪勋章

    发表于 2020-6-14 13:22:38 | 显示全部楼层
    这个厉害了
    我爱你三千遍
    回复

    使用道具 举报

  • TA的每日心情
    奋斗
    昨天 23:23
  • 签到天数: 241 天

    [LV.8]以坛为家I

    4

    主题

    1293

    帖子

    390

    积分

    超级影迷

    Rank: 6Rank: 6

    积分
    390
    发表于 2020-6-14 14:00:24 | 显示全部楼层
    适合小朋友看看
    回复

    使用道具 举报

  • TA的每日心情

    2019-10-24 00:15
  • 签到天数: 5 天

    [LV.2]偶尔看看I

    0

    主题

    933

    帖子

    48

    积分

    初级影迷

    Rank: 2

    积分
    48
    发表于 2020-6-14 14:11:45 | 显示全部楼层
    感谢分享         
    回复

    使用道具 举报

  • TA的每日心情
    开心
    昨天 10:19
  • 签到天数: 552 天

    [LV.9]以坛为家II

    0

    主题

    904

    帖子

    246

    积分

    高级影迷

    Rank: 4

    积分
    246

    小土豪勋章

    发表于 2020-6-14 16:27:29 | 显示全部楼层
    感谢分享!
    回复

    使用道具 举报

  • TA的每日心情
    开心
    6 小时前
  • 签到天数: 290 天

    [LV.8]以坛为家I

    1

    主题

    585

    帖子

    60

    积分

    初级影迷

    Rank: 2

    积分
    60
    发表于 2020-6-14 16:40:07 | 显示全部楼层
    感谢楼主分享
    回复

    使用道具 举报

  • TA的每日心情
    擦汗
    2020-6-7 11:34
  • 签到天数: 17 天

    [LV.4]偶尔看看III

    8

    主题

    290

    帖子

    217

    积分

    高级影迷

    Rank: 4

    积分
    217
    发表于 2020-6-14 18:10:42 | 显示全部楼层
    个人还是喜欢看2160P的
    回复

    使用道具 举报

    该用户从未签到

    0

    主题

    309

    帖子

    59

    积分

    初级影迷

    Rank: 2

    积分
    59
    发表于 2020-6-14 20:03:32 | 显示全部楼层
    非常感谢!!!
    回复

    使用道具 举报

    您需要登录后才可以回帖 登录 | 立即注册

    本版积分规则

    QQ|Archiver|手机版|小黑屋|影迷乐园

    GMT+8, 2021-1-18 06:50 , Processed in 0.073713 second(s), 33 queries .

    Powered by Discuz! X3.4

    Copyright © 2001-2020, Tencent Cloud.

    快速回复 返回顶部 返回列表