请选择 进入手机版 | 继续访问电脑版

YMLY-影迷乐园-特效字幕 蓝光原盘 1080P 高清动漫电影电视剧

 找回密码
 立即注册
搜索
查看: 938|回复: 41

[日本] [百度][1992][灌篮高手.TV版+剧场版+SP+音乐CD][101集.剧场版4部][国台粤日五音轨.简繁中字][MKV][115G][BDRip.1080P.X265.FLAC]

[复制链接]
  • TA的每日心情

    2020-7-26 08:14
  • 签到天数: 50 天

    [LV.5]常住居民I

    31

    主题

    168

    帖子

    292

    积分

    超级影迷

    Rank: 6Rank: 6

    积分
    292
    发表于 2020-6-21 07:50:39 | 显示全部楼层 |阅读模式
    原视频资源转自U2,中文音频提取于52KHD,字幕来自月光恋曲&枫雪动漫,特此感谢。
    与x264版本相比容量变化不大,画质增强,有效的解决了线条部分的欠码问题,剧场版的画面更好。

    TV版为台配国语,俏佳人台配国语,辽艺国配,粤语,日语语音,简繁字幕;剧场版为台配国语,日语语音,简繁字幕;SP为日语语音,简繁字幕。




    ◎译  名 灌篮高手/篮球飞人/男儿当入樽(港)
    ◎片  名 スラムダンク
    ◎年  代 1993
    ◎国  家 日本
    ◎类  别 动画/喜剧/运动
    ◎语  言 日语
    ◎上映日期 1993-10-16(日本)/2013-11-03(高清修复版)
    ◎IMDb评分  8.8/10 from 1,982 users
    ◎IMDb链接  http://www.imdb.com/title/tt0965547/
    ◎豆瓣评分 9.5/10 from 82,528 users
    ◎豆瓣链接 https://movie.douban.com/subject/1998799/
    ◎集  数 101
    ◎片  长 20分钟
    ◎导  演 Nobuto Sakamoto
    ◎主  演 草尾毅 Takeshi Kusao
          绿川光 Hikaru Midorikawa
          梁田清之 Kiyoyuki Yanada
          置鲇龙太郎 Ryôtarô Okiayu
          盐屋翼 Yoku Shioya
          原惠理子 Eriko Hara
          平松晶子 Akiko Hiramatsu
          田中秀幸 Hideyuki Tanaka
          小野坂昌也 Masaya Onosaka
          神奈延年 Nobutoshi Canna
          西村知道 Tomomichi Nishimura
          森川智之 Toshiyuki Morikawa
          干本雄之 Yûji Mikimoto
          盐屋浩三 Kôzô Shioya
          佐藤正之 Masayuki Satô
          江川央生 Hisao Egawa
          川津泰彦

    ◎简  介

      湘北高中的一年级新生樱木花道在初中就有了被50个女孩抛弃的“悲惨”经历,最后一个女孩抛弃他原来是看上了篮球部队小田,由此樱木对篮球更是深恶痛绝。进入高中后,樱木看上了美少女赤木晴子,晴子十分热爱篮球,为了赢取晴子的芳心,樱木决定加入篮球部。在侥幸赢得与篮球队队长赤木刚宪的打赌后,樱木顺利加入了篮球队。随着国中篮球联赛的最有价值球员流川枫的到来、伤愈复出的控位宫城良田以及误入歧途的前国中最有价值球员三井寿的回归,去年不堪一击的湘北篮球今年可谓人强马壮,虽然问题少年一大帮,但是在队长赤木刚宪的带领下,这一群以全国第一为目标的篮球少年正朝着自己的梦想进发!



    1. General
    2. Unique ID                      : 334772770598821313791124568853054884013 (0xFBDAE3EDBA173A4E255AFAB5690608AD)
    3. Complete name                  : E:Slam.Dunk.15.Ma10p.1080p.x265.flac.mkv
    4. Format                         : Matroska
    5. Format version                 : Version 4 / Version 2
    6. File size                      : 1.12 GiB
    7. Duration                       : 23 min 9 s
    8. Overall bit rate mode          : Variable
    9. Overall bit rate               : 6 946 kb/s
    10. Encoded date                   : UTC 2020-06-18 09:01:42
    11. Writing application            : mkvmerge v45.0.0 ('Heaven in Pennies') 64-bit
    12. Writing library                : libebml v1.3.10 + libmatroska v1.5.2
    13. Attachments                    : 52logo.ttf

    14. Video
    15. ID                             : 1
    16. Format                         : HEVC
    17. Format/Info                    : High Efficiency Video Coding
    18. Codec ID                       : V_MPEGH/ISO/HEVC
    19. Duration                       : 23 min 9 s
    20. Bit rate                       : 5 687 kb/s
    21. Width                          : 1 440 pixels
    22. Height                         : 1 080 pixels
    23. Display aspect ratio           : 4:3
    24. Frame rate mode                : Constant
    25. Frame rate                     : 23.976 (24000/1001) FPS
    26. Bits/(Pixel*Frame)             : 0.153
    27. Stream size                    : 942 MiB (82%)
    28. Default                        : Yes
    29. Forced                         : No

    30. Audio #1
    31. ID                             : 2
    32. Format                         : FLAC
    33. Format/Info                    : Free Lossless Audio Codec
    34. Codec ID                       : A_FLAC
    35. Duration                       : 23 min 9 s
    36. Bit rate mode                  : Variable
    37. Bit rate                       : 551 kb/s
    38. Channel(s)                     : 2 channels
    39. Channel positions              : Front: L R
    40. Sampling rate                  : 48.0 kHz
    41. Frame rate                     : 11.719 FPS (4096 SPF)
    42. Bit depth                      : 16 bits
    43. Stream size                    : 91.2 MiB (8%)
    44. Writing library                : libFLAC 1.2.1 (UTC 2007-09-17)
    45. Language                       : Japanese
    46. Default                        : Yes
    47. Forced                         : No

    48. Audio #2
    49. ID                             : 3
    50. Format                         : AAC
    51. Format/Info                    : Advanced Audio Codec
    52. Format profile                 : LC
    53. Codec ID                       : A_AAC-2
    54. Duration                       : 23 min 9 s
    55. Bit rate                       : 192 kb/s
    56. Channel(s)                     : 2 channels
    57. Channel positions              : Front: L R
    58. Sampling rate                  : 48.0 kHz
    59. Frame rate                     : 46.875 FPS (1024 SPF)
    60. Compression mode               : Lossy
    61. Delay relative to video        : 9 ms
    62. Stream size                    : 31.7 MiB (3%)
    63. Title                          : 台湾配音DVD正版国语
    64. Language                       : Chinese
    65. Default                        : No
    66. Forced                         : No

    67. Audio #3
    68. ID                             : 4
    69. Format                         : AAC
    70. Format/Info                    : Advanced Audio Codec
    71. Format profile                 : LC
    72. Codec ID                       : A_AAC-2
    73. Duration                       : 23 min 9 s
    74. Bit rate                       : 192 kb/s
    75. Channel(s)                     : 2 channels
    76. Channel positions              : Front: L R
    77. Sampling rate                  : 48.0 kHz
    78. Frame rate                     : 46.875 FPS (1024 SPF)
    79. Compression mode               : Lossy
    80. Delay relative to video        : 9 ms
    81. Stream size                    : 31.7 MiB (3%)
    82. Title                          : 俏佳人VCD台配国语
    83. Language                       : Chinese
    84. Default                        : No
    85. Forced                         : No

    86. Audio #4
    87. ID                             : 5
    88. Format                         : AAC
    89. Format/Info                    : Advanced Audio Codec
    90. Format profile                 : LC
    91. Codec ID                       : A_AAC-2
    92. Duration                       : 23 min 9 s
    93. Bit rate                       : 128 kb/s
    94. Channel(s)                     : 2 channels
    95. Channel positions              : Front: L R
    96. Sampling rate                  : 48.0 kHz
    97. Frame rate                     : 46.875 FPS (1024 SPF)
    98. Compression mode               : Lossy
    99. Delay relative to video        : 9 ms
    100. Stream size                    : 21.2 MiB (2%)
    101. Title                          : 辽艺国语
    102. Language                       : Chinese
    103. Default                        : No
    104. Forced                         : No

    105. Audio #5
    106. ID                             : 6
    107. Format                         : AAC
    108. Format/Info                    : Advanced Audio Codec
    109. Format profile                 : LC
    110. Codec ID                       : A_AAC-2
    111. Duration                       : 23 min 9 s
    112. Bit rate                       : 192 kb/s
    113. Channel(s)                     : 2 channels
    114. Channel positions              : Front: L R
    115. Sampling rate                  : 48.0 kHz
    116. Frame rate                     : 46.875 FPS (1024 SPF)
    117. Compression mode               : Lossy
    118. Delay relative to video        : 9 ms
    119. Stream size                    : 31.7 MiB (3%)
    120. Title                          : DVD正版粤语
    121. Language                       : Chinese
    122. Default                        : No
    123. Forced                         : No

    124. Text #1
    125. ID                             : 7
    126. Format                         : ASS
    127. Codec ID                       : S_TEXT/ASS
    128. Codec ID/Info                  : Advanced Sub Station Alpha
    129. Duration                       : 21 min 16 s
    130. Bit rate                       : 127 b/s
    131. Count of elements              : 342
    132. Compression mode               : Lossless
    133. Stream size                    : 19.8 KiB (0%)
    134. Title                          : 简中
    135. Language                       : Chinese
    136. Default                        : Yes
    137. Forced                         : No

    138. Text #2
    139. ID                             : 8
    140. Format                         : ASS
    141. Codec ID                       : S_TEXT/ASS
    142. Codec ID/Info                  : Advanced Sub Station Alpha
    143. Duration                       : 21 min 16 s
    144. Bit rate                       : 127 b/s
    145. Count of elements              : 342
    146. Compression mode               : Lossless
    147. Stream size                    : 19.8 KiB (0%)
    148. Title                          : 繁中
    149. Language                       : Chinese
    150. Default                        : No
    151. Forced                         : No

    152. Menu
    153. 00:01:43.103                   : en:Chapter 1
    154. 00:12:18.297                   : en:Chapter 2
    155. 00:21:05.264                   : en:Chapter 3
    156. 00:22:35.289                   : en:Chapter 4


    复制代码


    购买主题 已有 25 人购买  本主题需向作者支付 50 大洋 才能浏览
    回复

    使用道具 举报

  • TA的每日心情
    开心
    1 小时前
  • 签到天数: 475 天

    [LV.9]以坛为家II

    0

    主题

    728

    帖子

    232

    积分

    高级影迷

    Rank: 4

    积分
    232
    发表于 2020-6-21 09:29:42 | 显示全部楼层
    很给力啊  洗版了

    点评

    灌篮高手,日本动画片。  详情 回复 发表于 2020-6-26 06:50
    回复

    使用道具 举报

  • TA的每日心情
    开心
    昨天 20:44
  • 签到天数: 148 天

    [LV.7]常住居民III

    2

    主题

    1546

    帖子

    370

    积分

    超级影迷

    Rank: 6Rank: 6

    积分
    370
    发表于 2020-6-21 09:53:07 | 显示全部楼层
    这个真的很给力
    回复

    使用道具 举报

  • TA的每日心情
    开心
    昨天 08:55
  • 签到天数: 165 天

    [LV.7]常住居民III

    1

    主题

    1500

    帖子

    180

    积分

    高级影迷

    Rank: 4

    积分
    180
    发表于 2020-6-21 10:04:32 | 显示全部楼层
    多谢分享!
    回复

    使用道具 举报

  • TA的每日心情
    开心
    昨天 08:03
  • 签到天数: 433 天

    [LV.9]以坛为家II

    10

    主题

    818

    帖子

    102

    积分

    中级影迷

    Rank: 3Rank: 3

    积分
    102
    发表于 2020-6-21 10:05:59 | 显示全部楼层
    很棒的一个版本!
    回复

    使用道具 举报

  • TA的每日心情
    开心
    昨天 09:16
  • 签到天数: 119 天

    [LV.6]常住居民II

    1

    主题

    221

    帖子

    198

    积分

    高级影迷

    Rank: 4

    积分
    198
    发表于 2020-6-21 10:29:15 | 显示全部楼层
    这个好  昨天还在温习灌篮高手剧场版你
    回复

    使用道具 举报

  • TA的每日心情
    无聊
    2020-7-31 12:32
  • 签到天数: 15 天

    [LV.4]偶尔看看III

    0

    主题

    175

    帖子

    79

    积分

    中级影迷

    Rank: 3Rank: 3

    积分
    79
    发表于 2020-6-21 11:18:31 | 显示全部楼层
    多谢分享!
    回复

    使用道具 举报

  • TA的每日心情
    慵懒
    2020-9-17 11:25
  • 签到天数: 28 天

    [LV.4]偶尔看看III

    1

    主题

    491

    帖子

    56

    积分

    初级影迷

    Rank: 2

    积分
    56
    发表于 2020-6-21 11:22:32 | 显示全部楼层
    谢谢楼主分享
    回复

    使用道具 举报

  • TA的每日心情
    开心
    昨天 10:01
  • 签到天数: 290 天

    [LV.8]以坛为家I

    0

    主题

    663

    帖子

    61

    积分

    初级影迷

    Rank: 2

    积分
    61
    发表于 2020-6-21 12:54:08 | 显示全部楼层
    经典动画片啊,感谢
    回复

    使用道具 举报

  • TA的每日心情
    开心
    昨天 13:13
  • 签到天数: 217 天

    [LV.7]常住居民III

    5

    主题

    2252

    帖子

    240

    积分

    高级影迷

    Rank: 4

    积分
    240
    发表于 2020-6-21 12:54:22 | 显示全部楼层
    好资源 支持
    回复

    使用道具 举报

    您需要登录后才可以回帖 登录 | 立即注册

    本版积分规则

    QQ|Archiver|手机版|小黑屋|影迷乐园

    GMT+8, 2020-9-29 01:59 , Processed in 0.096010 second(s), 28 queries .

    Powered by Discuz! X3.4

    Copyright © 2001-2020, Tencent Cloud.

    快速回复 返回顶部 返回列表