请选择 进入手机版 | 继续访问电脑版

YMLY-影迷乐园-特效字幕 蓝光原盘 1080P 高清动漫电影电视剧

 找回密码
 立即注册
搜索
查看: 671|回复: 23

[合集] [百度][1080P][周杰伦][2000-2010个人专辑MV高清修复合集][84.34GB][MP4]

[复制链接]
  • TA的每日心情
    无聊
    1 小时前
  • 签到天数: 194 天

    [LV.7]常住居民III

    225

    主题

    775

    帖子

    2466

    积分

    超级版主

    Rank: 16Rank: 16Rank: 16Rank: 16

    积分
    2466

    超版勋章版主勋章土豪勋章小土豪勋章最佳新人十二生肖之猴双鱼座勋章百分百好孩子精华勋章

    发表于 2020-6-23 19:35:23 | 显示全部楼层 |阅读模式




    本资源分享给站内所有喜欢周董的朋友
    资源转自TG·CH 为防止“二次创作”
    MV前奏里会有短暂且低调的个人签名 介意勿下
    修复质量非常的好 都为500M到1G左右的原档 320K高质量音轨
    资源非压缩包分卷 可自行选择喜欢的部分下载

    本资源仅限会员测试带宽之用,严禁用于商业用途!
    对用于商业用途所产生的法律责任,由使用者自负!
    如有侵犯版权,请与本人或版主联系,我们将立即删除!


    引用修复者的话
    "所有MV均为自制修复,用DVD、Master等进行处理修复至伪1080P
    修复仅为提升观感,标注了Ver.2的MV是最近用新方法重新修复的
    效果比原来发布的第一版要好。"


    共收录修复高清化了以下专辑的所有MV共108首 并重制了大部分MV歌词

      《JAY》2000年11月7日
      《范特西》2001年9月20日
      《Fantasy Plus》2001年12月24日
      《八度空间》2002年7月18日
      《叶惠美》2003年7月31日
      《七里香》2004年8月3日
      《十一月的肖邦》2005年11月1日
      《依然范特西》2006年9月5日
      《我很忙》2007年11月1日
      《摩杰座》2008年10月9日
      《跨时代》2010年5月18日


    部分画面预览

















    单个文件资源信息
    1. General
    2. Complete name                  : D:\JAY\周杰伦 - 晴天 1080P修复版 ver.2.mp4
    3. Format                         : MPEG-4
    4. Format profile                 : Base Media
    5. Codec ID                       : isom (isom/avc1)
    6. File size                      : 942 MiB
    7. Duration                       : 5 min 16 s
    8. Overall bit rate mode          : Variable
    9. Overall bit rate               : 25.0 Mb/s
    10. Encoded date                   : UTC 2020-03-10 03:56:33
    11. Tagged date                    : UTC 2020-03-10 03:56:33

    12. Video
    13. ID                             : 1
    14. Format                         : AVC
    15. Format/Info                    : Advanced Video Codec
    16. Format profile                 : [email]High@L4.1[/email]
    17. Format settings                : CABAC / 4 Ref Frames
    18. Format settings, CABAC         : Yes
    19. Format settings, Reference fra : 4 frames
    20. Codec ID                       : avc1
    21. Codec ID/Info                  : Advanced Video Coding
    22. Duration                       : 5 min 16 s
    23. Bit rate                       : 24.7 Mb/s
    24. Maximum bit rate               : 36.2 Mb/s
    25. Width                          : 1 920 pixels
    26. Height                         : 1 080 pixels
    27. Display aspect ratio           : 16:9
    28. Frame rate mode                : Constant
    29. Frame rate                     : 29.970 (30000/1001) FPS
    30. Color space                    : YUV
    31. Chroma subsampling             : 4:2:0
    32. Bit depth                      : 8 bits
    33. Scan type                      : Progressive
    34. Bits/(Pixel*Frame)             : 0.397
    35. Stream size                    : 930 MiB (99%)
    36. Encoded date                   : UTC 2020-03-10 03:56:33
    37. Tagged date                    : UTC 2020-03-10 03:56:40
    38. Codec configuration box        : avcC

    39. Audio
    40. ID                             : 2
    41. Format                         : AAC LC
    42. Format/Info                    : Advanced Audio Codec Low Complexity
    43. Codec ID                       : mp4a-40-2
    44. Duration                       : 5 min 16 s
    45. Bit rate mode                  : Variable
    46. Bit rate                       : 319 kb/s
    47. Maximum bit rate               : 328 kb/s
    48. Channel(s)                     : 2 channels
    49. Channel layout                 : L R
    50. Sampling rate                  : 48.0 kHz
    51. Frame rate                     : 46.875 FPS (1024 SPF)
    52. Compression mode               : Lossy
    53. Stream size                    : 12.0 MiB (1%)
    54. Encoded date                   : UTC 2020-03-10 03:45:33
    55. Tagged date                    : UTC 2020-03-10 03:56:40
    复制代码

    购买主题 已有 15 人购买  本主题需向作者支付 85 大洋 才能浏览
    回复

    使用道具 举报

    该用户从未签到

    0

    主题

    202

    帖子

    66

    积分

    初级影迷

    Rank: 2

    积分
    66
    发表于 2020-6-23 20:06:19 | 显示全部楼层
    这个太好了!非常感谢!!!!
    回复

    使用道具 举报

  • TA的每日心情
    开心
    昨天 13:13
  • 签到天数: 217 天

    [LV.7]常住居民III

    5

    主题

    2252

    帖子

    240

    积分

    高级影迷

    Rank: 4

    积分
    240
    发表于 2020-6-23 20:49:04 | 显示全部楼层
    好资源 支持
    回复

    使用道具 举报

  • TA的每日心情
    奋斗
    昨天 09:12
  • 签到天数: 191 天

    [LV.7]常住居民III

    0

    主题

    380

    帖子

    57

    积分

    初级影迷

    Rank: 2

    积分
    57
    发表于 2020-6-23 20:56:51 | 显示全部楼层
    谢谢分享,很喜欢。
    回复

    使用道具 举报

  • TA的每日心情
    开心
    半小时前
  • 签到天数: 146 天

    [LV.7]常住居民III

    1

    主题

    1102

    帖子

    283

    积分

    超级影迷

    Rank: 6Rank: 6

    积分
    283
    发表于 2020-6-23 22:05:06 | 显示全部楼层
    感谢楼主分享
    回复

    使用道具 举报

  • TA的每日心情
    郁闷
    2020-8-22 03:01
  • 签到天数: 123 天

    [LV.7]常住居民III

    0

    主题

    1233

    帖子

    111

    积分

    中级影迷

    Rank: 3Rank: 3

    积分
    111
    发表于 2020-6-23 22:16:51 | 显示全部楼层
    谢谢楼主发布
    回复

    使用道具 举报

    该用户从未签到

    5

    主题

    132

    帖子

    106

    积分

    中级影迷

    Rank: 3Rank: 3

    积分
    106
    发表于 2020-6-23 22:45:13 | 显示全部楼层

    谢谢楼主发布
    回复

    使用道具 举报

  • TA的每日心情
    奋斗
    昨天 07:27
  • 签到天数: 155 天

    [LV.7]常住居民III

    0

    主题

    182

    帖子

    42

    积分

    初级影迷

    Rank: 2

    积分
    42
    发表于 2020-6-25 06:18:50 | 显示全部楼层

    这资源没话说了

    无敌!!!

    谢谢分享
    回复

    使用道具 举报

  • TA的每日心情
    无聊
    昨天 13:43
  • 签到天数: 77 天

    [LV.6]常住居民II

    0

    主题

    143

    帖子

    47

    积分

    初级影迷

    Rank: 2

    积分
    47
    发表于 2020-6-25 20:47:33 | 显示全部楼层
    好资源 要支持 真是各种各样的大神都有
    回复

    使用道具 举报

  • TA的每日心情
    郁闷
    前天 09:48
  • 签到天数: 73 天

    [LV.6]常住居民II

    1

    主题

    151

    帖子

    29

    积分

    初级影迷

    Rank: 2

    积分
    29
    发表于 2020-7-1 21:08:56 | 显示全部楼层
    很棒噢,多谢分享哈
    回复

    使用道具 举报

    您需要登录后才可以回帖 登录 | 立即注册

    本版积分规则

    QQ|Archiver|手机版|小黑屋|影迷乐园

    GMT+8, 2020-9-29 01:54 , Processed in 0.107347 second(s), 29 queries .

    Powered by Discuz! X3.4

    Copyright © 2001-2020, Tencent Cloud.

    快速回复 返回顶部 返回列表