请选择 进入手机版 | 继续访问电脑版

YMLY-影迷乐园-特效字幕 蓝光原盘 1080P 高清动漫电影电视剧

 找回密码
 立即注册
搜索
查看: 31|回复: 4

[华语MV] [百度][1080P][任贤齐][想你啦][78.53MB][MP4]

[复制链接]
  • TA的每日心情
    奋斗
    2020-2-21 00:36
  • 签到天数: 656 天

    [LV.9]以坛为家II

    6393

    主题

    7874

    帖子

    3万

    积分

    超级版主

    Rank: 16Rank: 16Rank: 16Rank: 16

    积分
    34102

    内测勋章最佳新人十二生肖之猴VIP包月勋章影迷男神小土豪勋章土豪勋章富甲一方精华勋章金话筒主题达人灌水之王

    发表于 7 天前 | 显示全部楼层 |阅读模式
    本帖最后由 齐迷小龙 于 2020-6-29 23:05 编辑
    专辑:想你啦  
    语种:国语
    唱片公司:寰亚
    音乐发行时间:2020-06-26



    任贤齐发布新歌《想你啦》,勾起人的情怀,特别的好听。任贤齐这首新歌是他和粉丝共同创造出的一首歌,任贤齐本人也表示这首歌,是为了答谢粉丝们的。感谢你们这些年对我的支持。粉丝们分享了任贤齐这首歌创作历程很温馨。

    本资源仅限会员测试带宽之用,严禁用于商业用途!
    对用于商业用途所产生的法律责任,由使用者自负!




    1. General
    2. Format                         : MPEG-4
    3. Format profile                 : Base Media
    4. Codec ID                       : isom (isom/iso2/avc1/mp41)
    5. File size                      : 78.5 MiB
    6. Duration                       : 3 min 34 s
    7. Overall bit rate mode          : Variable
    8. Overall bit rate               : 3 074 kb/s
    9. Description                    : Packed by Bilibili XCoder v2.0.2
    10. Writing application            : Lavf57.71.100

    11. Video
    12. ID                             : 1
    13. Format                         : AVC
    14. Format/Info                    : Advanced Video Codec
    15. Format profile                 : High@L4
    16. Format settings                : CABAC / 4 Ref Frames
    17. Format settings, CABAC         : Yes
    18. Format settings, Reference fra : 4 frames
    19. Codec ID                       : avc1
    20. Codec ID/Info                  : Advanced Video Coding
    21. Duration                       : 3 min 34 s
    22. Bit rate                       : 2 926 kb/s
    23. Width                          : 1 920 pixels
    24. Height                         : 1 080 pixels
    25. Display aspect ratio           : 16:9
    26. Frame rate mode                : Variable
    27. Frame rate                     : 30.000 FPS
    28. Minimum frame rate             : 29.412 FPS
    29. Maximum frame rate             : 30.303 FPS
    30. Color space                    : YUV
    31. Chroma subsampling             : 4:2:0
    32. Bit depth                      : 8 bits
    33. Scan type                      : Progressive
    34. Bits/(Pixel*Frame)             : 0.047
    35. Stream size                    : 74.7 MiB (95%)
    36. Writing library                : BiliBili H264 Encoder v1.0
    37. Color range                    : Limited
    38. Transfer characteristics       : BT.709
    39. Matrix coefficients            : BT.709
    40. Codec configuration box        : avcC

    41. Audio
    42. ID                             : 2
    43. Format                         : AAC LC
    44. Format/Info                    : Advanced Audio Codec Low Complexity
    45. Codec ID                       : mp4a-40-2
    46. Duration                       : 3 min 34 s
    47. Bit rate mode                  : Variable
    48. Bit rate                       : 139 kb/s
    49. Channel(s)                     : 2 channels
    50. Channel layout                 : L R
    51. Sampling rate                  : 48.0 kHz
    52. Frame rate                     : 46.875 FPS (1024 SPF)
    53. Compression mode               : Lossy
    54. Stream size                    : 3.54 MiB (5%)
    55. Default                        : Yes
    56. Alternate group                : 1
    复制代码










    游客,如果您要查看本帖隐藏内容请回复


    郑重声明:
    本人提供的所有影视作品均是在网上搜集,任何涉及商业盈利目的均不得使用,否则产生的一切后果将由您自己承担!
    本人不对本人所发布的任何内容负任何法律责任!该下载内容仅做宽带测试使用,请在下载后24小时内删除。请购买正版!
    本人列出的文件没有保存在本站的服务器上,本人仅负责连接,本人对被传播文件的内容一无所知。
    如侵犯视频原作者或发行商版权,请联系本人删除!
    回复

    使用道具 举报

  • TA的每日心情

    13 小时前
  • 签到天数: 99 天

    [LV.6]常住居民II

    6

    主题

    1470

    帖子

    80

    积分

    中级影迷

    Rank: 3Rank: 3

    积分
    80
    QQ
    发表于 6 天前 | 显示全部楼层
    谢谢分享。
    回复

    使用道具 举报

  • TA的每日心情
    开心
    12 小时前
  • 签到天数: 112 天

    [LV.6]常住居民II

    0

    主题

    1057

    帖子

    122

    积分

    中级影迷

    Rank: 3Rank: 3

    积分
    122
    发表于 6 天前 | 显示全部楼层
    多谢分享!
    回复

    使用道具 举报

  • TA的每日心情
    难过
    12 小时前
  • 签到天数: 112 天

    [LV.6]常住居民II

    84

    主题

    434

    帖子

    796

    积分

    超级版主

    做个优雅的白嫖党

    Rank: 16Rank: 16Rank: 16Rank: 16

    积分
    796

    超版勋章版主勋章土豪勋章小土豪勋章最佳新人十二生肖之猴双鱼座勋章

    发表于 6 天前 | 显示全部楼层
    感谢大大分享
    回复

    使用道具 举报

  • TA的每日心情
    开心
    2 小时前
  • 签到天数: 185 天

    [LV.7]常住居民III

    317

    主题

    1442

    帖子

    1798

    积分

    稀有影迷

    Rank: 12Rank: 12Rank: 12

    积分
    1798

    小土豪勋章土豪勋章主题达人百分百好孩子

    发表于 6 天前 | 显示全部楼层
    喜大普奔
    取自网络用于网络,一切都是为了娱乐。

    回复太多看不过来,链接失效请发消息。
    回复

    使用道具 举报

    您需要登录后才可以回帖 登录 | 立即注册

    本版积分规则

    QQ|Archiver|手机版|小黑屋|影迷乐园  

    GMT+8, 2020-7-6 21:19 , Processed in 0.139882 second(s), 30 queries .

    Powered by Discuz! X3.3

    © 2001-2017 Comsenz Inc.

    快速回复 返回顶部 返回列表