请选择 进入手机版 | 继续访问电脑版

YMLY-影迷乐园-特效字幕 蓝光原盘 1080P 高清动漫电影电视剧

 找回密码
 立即注册
搜索
查看: 23|回复: 1

[华语MV] [百度][1080P][周慧敏][最爱.画质修复版][217MB][MKV][FLAC音轨]

[复制链接]
  • TA的每日心情
    难过
    11 小时前
  • 签到天数: 112 天

    [LV.6]常住居民II

    84

    主题

    434

    帖子

    796

    积分

    超级版主

    做个优雅的白嫖党

    Rank: 16Rank: 16Rank: 16Rank: 16

    积分
    796

    超版勋章版主勋章土豪勋章小土豪勋章最佳新人十二生肖之猴双鱼座勋章

    发表于 6 天前 | 显示全部楼层 |阅读模式

    由于原档分辨率太低(640x360)
    最多也就修复成这样了
    用对嘴型大法替换了FLAC无损音轨
    有爱自取












    1. General
    2. Unique ID                      : 69549335254265202384159500346220105876 (0x3452B6F90F26F90EDB6AA40A9F405094)
    3. Complete name                  : D:\Song\MV\国语\[FHD]周慧敏 - 最爱.mkv
    4. Format                         : Matroska
    5. Format version                 : Version 4
    6. File size                      : 217 MiB
    7. Duration                       : 4 min 25 s
    8. Overall bit rate mode          : Variable
    9. Overall bit rate               : 6 850 kb/s
    10. Movie name                     : 周慧敏 - 最爱
    11. Encoded date                   : UTC 2020-06-29 19:56:50
    12. Writing application            : mkvmerge v47.0.0 ('Black Flag') 64-bit
    13. Writing library                : libebml v1.3.10 + libmatroska v1.5.2
    14. Cover                          : Yes
    15. Attachments                    : COVER.jpg

    16. Video
    17. ID                             : 1
    18. Format                         : AVC
    19. Format/Info                    : Advanced Video Codec
    20. Format profile                 : Main@L4.1
    21. Format settings                : CABAC / 2 Ref Frames
    22. Format settings, CABAC         : Yes
    23. Format settings, Reference fra : 2 frames
    24. Format settings, GOP           : M=3, N=29
    25. Codec ID                       : V_MPEG4/ISO/AVC
    26. Duration                       : 4 min 23 s
    27. Bit rate mode                  : Variable
    28. Bit rate                       : 6 043 kb/s
    29. Maximum bit rate               : 12.0 Mb/s
    30. Width                          : 1 920 pixels
    31. Height                         : 1 080 pixels
    32. Display aspect ratio           : 16:9
    33. Frame rate mode                : Constant
    34. Frame rate                     : 29.970 (30000/1001) FPS
    35. Color space                    : YUV
    36. Chroma subsampling             : 4:2:0
    37. Bit depth                      : 8 bits
    38. Scan type                      : Progressive
    39. Bits/(Pixel*Frame)             : 0.097
    40. Stream size                    : 189 MiB (87%)
    41. Title                          : 周慧敏 - 最爱
    42. Language                       : Chinese
    43. Default                        : Yes
    44. Forced                         : No

    45. Audio
    46. ID                             : 2
    47. Format                         : FLAC
    48. Format/Info                    : Free Lossless Audio Codec
    49. Codec ID                       : A_FLAC
    50. Duration                       : 4 min 25 s
    51. Bit rate mode                  : Variable
    52. Bit rate                       : 865 kb/s
    53. Channel(s)                     : 2 channels
    54. Channel layout                 : L R
    55. Sampling rate                  : 44.1 kHz
    56. Frame rate                     : 10.768 FPS (4095 SPF)
    57. Bit depth                      : 16 bits
    58. Compression mode               : Lossless
    59. Delay relative to video        : 767 ms
    60. Stream size                    : 27.4 MiB (13%)
    61. Title                          : bycz
    62. Writing library                : libFLAC 1.3.1 (UTC 2014-11-25)
    63. Language                       : Chinese
    64. Default                        : Yes
    65. Forced                         : No
    复制代码

    购买主题 本主题需向作者支付 5 大洋 才能浏览
    回复

    使用道具 举报

  • TA的每日心情
    开心
    前天 09:24
  • 签到天数: 71 天

    [LV.6]常住居民II

    1

    主题

    1021

    帖子

    129

    积分

    中级影迷

    Rank: 3Rank: 3

    积分
    129
    发表于 6 天前 | 显示全部楼层
    修复得不错噢
    回复

    使用道具 举报

    您需要登录后才可以回帖 登录 | 立即注册

    本版积分规则

    QQ|Archiver|手机版|小黑屋|影迷乐园  

    GMT+8, 2020-7-6 20:32 , Processed in 0.134375 second(s), 32 queries .

    Powered by Discuz! X3.3

    © 2001-2017 Comsenz Inc.

    快速回复 返回顶部 返回列表