请选择 进入手机版 | 继续访问电脑版

YMLY-影迷乐园-特效字幕 蓝光原盘 1080P 高清动漫电影电视剧

 找回密码
 立即注册
搜索
查看: 22|回复: 1

[华语MV] [百度][720P][By2][不是故意][85.6MB][MKV][FLAC音轨]

[复制链接]
  • TA的每日心情
    难过
    10 小时前
  • 签到天数: 112 天

    [LV.6]常住居民II

    84

    主题

    435

    帖子

    796

    积分

    超级版主

    做个优雅的白嫖党

    Rank: 16Rank: 16Rank: 16Rank: 16

    积分
    796

    超版勋章版主勋章土豪勋章小土豪勋章最佳新人十二生肖之猴双鱼座勋章

    发表于 6 天前 | 显示全部楼层 |阅读模式

    很喜欢的一段MV
    720P已经是能找到最好的画质了
    内封自制SUP字幕 FLAC音轨











    1. General
    2. Unique ID                      : 131863095899663395901893058024311363645 (0x6333E893257E332259269547B1B8183D)
    3. Complete name                  : D:\Song\MV\国语\[HD]By2 - 不是故意.mkv
    4. Format                         : Matroska
    5. Format version                 : Version 4
    6. File size                      : 85.6 MiB
    7. Duration                       : 5 min 2 s
    8. Overall bit rate mode          : Variable
    9. Overall bit rate               : 2 375 kb/s
    10. Movie name                     : By2 - 不是故意
    11. Encoded date                   : UTC 2020-06-30 03:30:27
    12. Writing application            : mkvmerge v47.0.0 ('Black Flag') 64-bit
    13. Writing library                : libebml v1.3.10 + libmatroska v1.5.2
    14. Cover                          : Yes
    15. Attachments                    : COVER.jpg

    16. Video
    17. ID                             : 2
    18. Format                         : AVC
    19. Format/Info                    : Advanced Video Codec
    20. Format profile                 : High@L3.1
    21. Format settings                : CABAC / 4 Ref Frames
    22. Format settings, CABAC         : Yes
    23. Format settings, Reference fra : 4 frames
    24. Codec ID                       : V_MPEG4/ISO/AVC
    25. Duration                       : 4 min 59 s
    26. Bit rate                       : 1 295 kb/s
    27. Width                          : 1 280 pixels
    28. Height                         : 720 pixels
    29. Display aspect ratio           : 16:9
    30. Frame rate mode                : Constant
    31. Frame rate                     : 29.970 FPS
    32. Color space                    : YUV
    33. Chroma subsampling             : 4:2:0
    34. Bit depth                      : 8 bits
    35. Scan type                      : Progressive
    36. Bits/(Pixel*Frame)             : 0.047
    37. Stream size                    : 46.2 MiB (54%)
    38. Title                          : By2 - 不是故意
    39. Writing library                : BiliBili H264 Encoder v1.0
    40. Language                       : Chinese
    41. Default                        : Yes
    42. Forced                         : No

    43. Audio
    44. ID                             : 1
    45. Format                         : FLAC
    46. Format/Info                    : Free Lossless Audio Codec
    47. Codec ID                       : A_FLAC
    48. Duration                       : 5 min 1 s
    49. Bit rate mode                  : Variable
    50. Bit rate                       : 929 kb/s
    51. Channel(s)                     : 2 channels
    52. Channel layout                 : L R
    53. Sampling rate                  : 44.1 kHz
    54. Frame rate                     : 10.767 FPS (4096 SPF)
    55. Bit depth                      : 16 bits
    56. Compression mode               : Lossless
    57. Delay relative to video        : 1 s 433 ms
    58. Stream size                    : 33.3 MiB (39%)
    59. Title                          : 无损 BYCZ
    60. Writing library                : libFLAC 1.3.0 (UTC 2013-05-26)
    61. Language                       : Chinese
    62. Default                        : Yes
    63. Forced                         : No

    64. Text
    65. ID                             : 3
    66. Format                         : PGS
    67. Muxing mode                    : zlib
    68. Codec ID                       : S_HDMV/PGS
    69. Codec ID/Info                  : Picture based subtitle format used on BDs/HD-DVDs
    70. Duration                       : 4 min 3 s
    71. Bit rate                       : 401 kb/s
    72. Count of elements              : 1678
    73. Stream size                    : 11.6 MiB (14%)
    74. Title                          : BYCZ
    75. Language                       : Chinese
    76. Default                        : Yes
    77. Forced                         : No
    复制代码

    购买主题 本主题需向作者支付 5 大洋 才能浏览
    回复

    使用道具 举报

  • TA的每日心情
    开心
    前天 09:24
  • 签到天数: 71 天

    [LV.6]常住居民II

    1

    主题

    1021

    帖子

    129

    积分

    中级影迷

    Rank: 3Rank: 3

    积分
    129
    发表于 6 天前 | 显示全部楼层
    感谢楼主分享
    回复

    使用道具 举报

    您需要登录后才可以回帖 登录 | 立即注册

    本版积分规则

    QQ|Archiver|手机版|小黑屋|影迷乐园  

    GMT+8, 2020-7-6 19:32 , Processed in 0.134628 second(s), 35 queries .

    Powered by Discuz! X3.3

    © 2001-2017 Comsenz Inc.

    快速回复 返回顶部 返回列表