请选择 进入手机版 | 继续访问电脑版

YMLY-影迷乐园-特效字幕 蓝光原盘 1080P 高清动漫电影电视剧

 找回密码
 立即注册
搜索
查看: 23|回复: 2

[华语MV] [百度][1080P][薛之谦][暧昧][94.7MB][MKV]

[复制链接]
  • TA的每日心情
    难过
    10 小时前
  • 签到天数: 112 天

    [LV.6]常住居民II

    84

    主题

    434

    帖子

    796

    积分

    超级版主

    做个优雅的白嫖党

    Rank: 16Rank: 16Rank: 16Rank: 16

    积分
    796

    超版勋章版主勋章土豪勋章小土豪勋章最佳新人十二生肖之猴双鱼座勋章

    发表于 6 天前 | 显示全部楼层 |阅读模式
    老薛的MV质量都挺不错









    1. General
    2. Unique ID                      : 93765529659645041262929694065217771381 (0x468A9589B1804510A7D8A6A1B0101775)
    3. Complete name                  : D:\Song\MV\国语\[FHD]薛之谦 - 暧昧.mkv
    4. Format                         : Matroska
    5. Format version                 : Version 4
    6. File size                      : 94.7 MiB
    7. Duration                       : 5 min 12 s
    8. Overall bit rate mode          : Variable
    9. Overall bit rate               : 2 543 kb/s
    10. Movie name                     : 薛之谦 - 暧昧
    11. Encoded date                   : UTC 2020-03-16 09:08:54
    12. Writing application            : mkvmerge v44.0.0 ('Domino') 64-bit
    13. Writing library                : libebml v1.3.10 + libmatroska v1.5.2
    14. Cover                          : Yes
    15. Attachments                    : COVER.jpg

    16. Video
    17. ID                             : 2
    18. Format                         : AVC
    19. Format/Info                    : Advanced Video Codec
    20. Format profile                 : High@L4.1
    21. Format settings                : CABAC / 4 Ref Frames
    22. Format settings, CABAC         : Yes
    23. Format settings, Reference fra : 4 frames
    24. Codec ID                       : V_MPEG4/ISO/AVC
    25. Duration                       : 5 min 12 s
    26. Bit rate                       : 1 740 kb/s
    27. Width                          : 1 920 pixels
    28. Height                         : 1 080 pixels
    29. Display aspect ratio           : 16:9
    30. Frame rate mode                : Constant
    31. Frame rate                     : 25.000 FPS
    32. Color space                    : YUV
    33. Chroma subsampling             : 4:2:0
    34. Bit depth                      : 8 bits
    35. Scan type                      : Progressive
    36. Bits/(Pixel*Frame)             : 0.034
    37. Stream size                    : 64.8 MiB (68%)
    38. Title                          : 薛之谦 - 暧昧
    39. Writing library                : x264 core 148
    40. Encoding settings              : cabac=1 / ref=3 / deblock=1:-1:-1 / analyse=0x3:0x113 / me=hex / subme=9 / psy=1 / psy_rd=1.00:0.15 / mixed_ref=1 / me_range=16 / chroma_me=1 / trellis=1 / 8x8dct=1 / cqm=0 / deadzone=21,11 / fast_pskip=1 / chroma_qp_offset=-3 / threads=34 / lookahead_threads=3 / sliced_threads=0 / nr=0 / decimate=1 / interlaced=0 / bluray_compat=0 / stitchable=1 / constrained_intra=0 / bframes=4 / b_pyramid=2 / b_adapt=2 / b_bias=0 / direct=1 / weightb=1 / open_gop=0 / weightp=2 / keyint=250 / keyint_min=25 / scenecut=40 / intra_refresh=0 / rc_lookahead=250 / rc=2pass / mbtree=1 / bitrate=1740 / ratetol=1.0 / qcomp=0.60 / qpmin=0 / qpmax=69 / qpstep=4 / cplxblur=20.0 / qblur=0.5 / ip_ratio=1.40 / aq=2:1.00
    41. Language                       : Chinese
    42. Default                        : Yes
    43. Forced                         : No

    44. Audio
    45. ID                             : 1
    46. Format                         : FLAC
    47. Format/Info                    : Free Lossless Audio Codec
    48. Codec ID                       : A_FLAC
    49. Duration                       : 5 min 12 s
    50. Bit rate mode                  : Variable
    51. Bit rate                       : 792 kb/s
    52. Channel(s)                     : 2 channels
    53. Channel layout                 : L R
    54. Sampling rate                  : 44.1 kHz
    55. Frame rate                     : 10.768 FPS (4095 SPF)
    56. Bit depth                      : 16 bits
    57. Compression mode               : Lossless
    58. Delay relative to video        : -80 ms
    59. Stream size                    : 29.5 MiB (31%)
    60. Title                          : 无损FLAC音轨 BYCZ
    61. Writing library                : libFLAC 1.2.1 (UTC 2007-09-17)
    62. Language                       : Chinese
    63. Default                        : Yes
    64. Forced                         : No
    复制代码

    购买主题 本主题需向作者支付 5 大洋 才能浏览
    回复

    使用道具 举报

  • TA的每日心情
    开心
    14 小时前
  • 签到天数: 99 天

    [LV.6]常住居民II

    0

    主题

    242

    帖子

    12

    积分

    入门影迷

    Rank: 1

    积分
    12
    发表于 6 天前 | 显示全部楼层
    黑白风格的MV 感谢分享 但是欣赏不来薛之谦啊

    点评

    这家伙我也不感冒,但有几首歌写得还是不错的  详情 回复 发表于 6 天前
    回复

    使用道具 举报

  • TA的每日心情
    难过
    10 小时前
  • 签到天数: 112 天

    [LV.6]常住居民II

    84

    主题

    434

    帖子

    796

    积分

    超级版主

    做个优雅的白嫖党

    Rank: 16Rank: 16Rank: 16Rank: 16

    积分
    796

    超版勋章版主勋章土豪勋章小土豪勋章最佳新人十二生肖之猴双鱼座勋章

     楼主| 发表于 6 天前 | 显示全部楼层
    勤奋的自己想 发表于 2020-6-30 14:59
    黑白风格的MV 感谢分享 但是欣赏不来薛之谦啊

    这家伙我也不感冒,但有几首歌写得还是不错的
    回复

    使用道具 举报

    您需要登录后才可以回帖 登录 | 立即注册

    本版积分规则

    QQ|Archiver|手机版|小黑屋|影迷乐园  

    GMT+8, 2020-7-6 20:03 , Processed in 0.151021 second(s), 32 queries .

    Powered by Discuz! X3.3

    © 2001-2017 Comsenz Inc.

    快速回复 返回顶部 返回列表