请选择 进入手机版 | 继续访问电脑版

YMLY-影迷乐园-特效字幕 蓝光原盘 1080P 高清动漫电影电视剧

 找回密码
 立即注册
搜索
查看: 481|回复: 20

[美国] [百度][1990-1997][1080P][宋飞正传.S01-S09][英语内封简繁多国字幕][MKV][462GB][Seinfeld.S01-S09.1080p.AMZN.WEB-DL.DDP2.0.H264-Ao]

[复制链接]
  • TA的每日心情
    慵懒
    1 小时前
  • 签到天数: 472 天

    [LV.9]以坛为家II

    565

    主题

    1245

    帖子

    6070

    积分

    超级版主

    Rank: 16Rank: 16Rank: 16Rank: 16

    积分
    6070

    超版勋章版主勋章优秀版主土豪勋章小土豪勋章主题达人百分百好孩子最佳新人影迷男神富甲一方十二生肖之猴巨蟹座勋章

    发表于 2020-7-13 12:55:37 | 显示全部楼层 |阅读模式









    ◎译  名 宋飞正传 第一季 / Stand-Up Season 1 / The Seinfeld Chronicles / 善菲尔德 / 宋飞外传 第一季
    ◎片  名 Seinfeld Season 1
    ◎年  代 1990
    ◎产  地 美国
    ◎类  别 喜剧
    ◎语  言 英语
    ◎上映日期 1990-05-31(美国)
    ◎IMDb评分  8.8/10 from 244353 users
    ◎IMDb链接  https://www.imdb.com/title/tt0098904
    ◎豆瓣评分 8.5/10 from 5751 users
    ◎豆瓣链接 https://movie.douban.com/subject/1418198/
    ◎集  数 5
    ◎片  长 23分钟
    ◎导  演 Tom Cherones
    ◎编  剧 拉里·戴维 Larry David / 杰瑞·宋飞 Jerry Seinfeld
    ◎主  演 杰瑞·宋飞 Jerry Seinfeld
           杰森·亚历山大 Jason Alexander
           茱莉亚·路易斯-德瑞弗斯 Julia Louis-Dreyfus
           Michael Richards


    ◎标  签 美剧 | 喜剧 | 美国 | 情景喜剧 | seinfeld | 电视剧 | 看过的电视剧 | 英语标签

    ◎简  介  

      本剧集被评为“21世纪最伟大的剧集”,由Jerry Seinfeld和Larry David共同创意,1989年至1998年在NBC播出,总共180集。《宋飞正传》以纽约为背景,主要人物包括由Jerry Seinfeld本人饰演的喜剧演员“宋飞”Seinfeld、他的多年老友George(杰森·亚历山大 Jason Alexander 饰)、以及前女友Elaine(茱莉亚·路易斯-德瑞弗斯 Julia Louis-Dreyfus 饰)和对门邻居Kramer(迈克尔·理查兹 Michael Richards 饰)。
      《宋飞正传》与其它情景喜剧最大的区别在于它是"A show about NOTHING",没有主题,没有主线。每集故事自成一体,主要情节即是四位主要人物的日常生活、工作、异性关系等等,笑料也在这其中铺设。然而这样一部about nothing的情景喜剧,却在播出之后立即得到了评论界和观众的一致好评与喜爱,收视率连年居高。2002年美国权威电视杂志《TV GUIDE》组织的"50 Greatest Shows of All Time"评选中,本剧排在第一位,而George和Kramer则名列"TV's Greatest Characters"。
    1. General
    2. Unique ID                      : 202759386546896700454899881473030375369 (0x988A09936A4221A8E6361B2AFCC647C9)
    3. Complete name                  : E:\影视\宋飞正传 第一季.Seinfeld.S01.1080p.AMZN.WEB-DL.DDP2.0.H264-Ao\Seinfeld.S01E01.1080p.AMZN.WEB-DL.DDP2.0.H264-Ao.mkv
    4. Format                         : Matroska
    5. Format version                 : Version 4
    6. File size                      : 2.52 GiB
    7. Duration                       : 23 min 6 s
    8. Overall bit rate               : 15.6 Mb/s
    9. Encoded date                   : UTC 2001-01-01 00:00:00
    10. Writing application            : mkvmerge v31.0.0 ('Dolores In A Shoestand') 64-bit
    11. Writing library                : libebml v1.3.6 + libmatroska v1.4.9

    12. Video
    13. ID                             : 1
    14. Format                         : AVC
    15. Format/Info                    : Advanced Video Codec
    16. Format profile                 : High@L4
    17. Format settings                : CABAC / 4 Ref Frames
    18. Format settings, CABAC         : Yes
    19. Format settings, Reference fra : 4 frames
    20. Codec ID                       : V_MPEG4/ISO/AVC
    21. Duration                       : 23 min 6 s
    22. Bit rate                       : 14.0 Mb/s
    23. Width                          : 1 920 pixels
    24. Height                         : 1 080 pixels
    25. Display aspect ratio           : 16:9
    26. Frame rate mode                : Constant
    27. Frame rate                     : 23.976 (24000/1001) FPS
    28. Color space                    : YUV
    29. Chroma subsampling             : 4:2:0
    30. Bit depth                      : 8 bits
    31. Scan type                      : Progressive
    32. Bits/(Pixel*Frame)             : 0.282
    33. Stream size                    : 2.27 GiB (90%)
    34. Default                        : Yes
    35. Forced                         : No
    36. Color range                    : Limited
    37. Color primaries                : BT.709
    38. Transfer characteristics       : BT.709
    39. Matrix coefficients            : BT.709

    40. Audio #1
    41. ID                             : 2
    42. Format                         : E-AC-3
    43. Format/Info                    : Enhanced AC-3
    44. Commercial name                : Dolby Digital Plus
    45. Codec ID                       : A_EAC3
    46. Duration                       : 23 min 6 s
    47. Bit rate mode                  : Constant
    48. Bit rate                       : 224 kb/s
    49. Channel(s)                     : 2 channels
    50. Channel layout                 : L R
    51. Sampling rate                  : 48.0 kHz
    52. Frame rate                     : 31.250 FPS (1536 SPF)
    53. Compression mode               : Lossy
    54. Stream size                    : 37.0 MiB (1%)
    55. Title                          : English
    56. Language                       : English
    57. Service kind                   : Complete Main
    58. Default                        : Yes
    59. Forced                         : No

    60. Audio #2
    61. ID                             : 3
    62. Format                         : E-AC-3
    63. Format/Info                    : Enhanced AC-3
    64. Commercial name                : Dolby Digital Plus
    65. Codec ID                       : A_EAC3
    66. Duration                       : 23 min 6 s
    67. Bit rate mode                  : Constant
    68. Bit rate                       : 224 kb/s
    69. Channel(s)                     : 2 channels
    70. Channel layout                 : L R
    71. Sampling rate                  : 48.0 kHz
    72. Frame rate                     : 31.250 FPS (1536 SPF)
    73. Compression mode               : Lossy
    74. Stream size                    : 37.0 MiB (1%)
    75. Title                          : Deutsch
    76. Language                       : German
    77. Service kind                   : Complete Main
    78. Default                        : No
    79. Forced                         : No

    80. Audio #3
    81. ID                             : 4
    82. Format                         : E-AC-3
    83. Format/Info                    : Enhanced AC-3
    84. Commercial name                : Dolby Digital Plus
    85. Codec ID                       : A_EAC3
    86. Duration                       : 23 min 6 s
    87. Bit rate mode                  : Constant
    88. Bit rate                       : 224 kb/s
    89. Channel(s)                     : 2 channels
    90. Channel layout                 : L R
    91. Sampling rate                  : 48.0 kHz
    92. Frame rate                     : 31.250 FPS (1536 SPF)
    93. Compression mode               : Lossy
    94. Stream size                    : 37.0 MiB (1%)
    95. Title                          : Fran
    96. Language                       : French
    97. Service kind                   : Complete Main
    98. Default                        : No
    99. Forced                         : No

    100. Audio #4
    101. ID                             : 5
    102. Format                         : E-AC-3
    103. Format/Info                    : Enhanced AC-3
    104. Commercial name                : Dolby Digital Plus
    105. Codec ID                       : A_EAC3
    106. Duration                       : 23 min 6 s
    107. Bit rate mode                  : Constant
    108. Bit rate                       : 224 kb/s
    109. Channel(s)                     : 2 channels
    110. Channel layout                 : L R
    111. Sampling rate                  : 48.0 kHz
    112. Frame rate                     : 31.250 FPS (1536 SPF)
    113. Compression mode               : Lossy
    114. Stream size                    : 37.0 MiB (1%)
    115. Language                       : Japanese
    116. Service kind                   : Complete Main
    117. Default                        : No
    118. Forced                         : No

    119. Audio #5
    120. ID                             : 6
    121. Format                         : E-AC-3
    122. Format/Info                    : Enhanced AC-3
    123. Commercial name                : Dolby Digital Plus
    124. Codec ID                       : A_EAC3
    125. Duration                       : 23 min 6 s
    126. Bit rate mode                  : Constant
    127. Bit rate                       : 224 kb/s
    128. Channel(s)                     : 2 channels
    129. Channel layout                 : L R
    130. Sampling rate                  : 48.0 kHz
    131. Frame rate                     : 31.250 FPS (1536 SPF)
    132. Compression mode               : Lossy
    133. Stream size                    : 37.0 MiB (1%)
    134. Title                          : Espa
    135. Language                       : Spanish
    136. Service kind                   : Complete Main
    137. Default                        : No
    138. Forced                         : No

    139. Audio #6
    140. ID                             : 7
    141. Format                         : E-AC-3
    142. Format/Info                    : Enhanced AC-3
    143. Commercial name                : Dolby Digital Plus
    144. Codec ID                       : A_EAC3
    145. Duration                       : 23 min 6 s
    146. Bit rate mode                  : Constant
    147. Bit rate                       : 224 kb/s
    148. Channel(s)                     : 2 channels
    149. Channel layout                 : L R
    150. Sampling rate                  : 48.0 kHz
    151. Frame rate                     : 31.250 FPS (1536 SPF)
    152. Compression mode               : Lossy
    153. Stream size                    : 37.0 MiB (1%)
    154. Title                          : Espa
    155. Language                       : Spanish
    156. Service kind                   : Complete Main
    157. Default                        : No
    158. Forced                         : No

    159. Audio #7
    160. ID                             : 8
    161. Format                         : E-AC-3
    162. Format/Info                    : Enhanced AC-3
    163. Commercial name                : Dolby Digital Plus
    164. Codec ID                       : A_EAC3
    165. Duration                       : 23 min 6 s
    166. Bit rate mode                  : Constant
    167. Bit rate                       : 224 kb/s
    168. Channel(s)                     : 2 channels
    169. Channel layout                 : L R
    170. Sampling rate                  : 48.0 kHz
    171. Frame rate                     : 31.250 FPS (1536 SPF)
    172. Compression mode               : Lossy
    173. Stream size                    : 37.0 MiB (1%)
    174. Title                          : Italiano
    175. Language                       : Italian
    176. Service kind                   : Complete Main
    177. Default                        : No
    178. Forced                         : No

    179. Text #1
    180. ID                             : 9
    181. Format                         : UTF-8
    182. Codec ID                       : S_TEXT/UTF8
    183. Codec ID/Info                  : UTF-8 Plain Text
    184. Duration                       : 23 min 3 s
    185. Bit rate                       : 67 b/s
    186. Count of elements              : 275
    187. Stream size                    : 11.4 KiB (0%)
    188. Title                          : Dansk
    189. Language                       : Danish
    190. Default                        : Yes
    191. Forced                         : No

    192. Text #2
    193. ID                             : 10
    194. Format                         : UTF-8
    195. Codec ID                       : S_TEXT/UTF8
    196. Codec ID/Info                  : UTF-8 Plain Text
    197. Duration                       : 22 min 30 s
    198. Bit rate                       : 76 b/s
    199. Count of elements              : 419
    200. Stream size                    : 12.7 KiB (0%)
    201. Title                          : Deutsch [UT]
    202. Language                       : German
    203. Default                        : No
    204. Forced                         : No

    205. Text #3
    206. ID                             : 11
    207. Format                         : UTF-8
    208. Codec ID                       : S_TEXT/UTF8
    209. Codec ID/Info                  : UTF-8 Plain Text
    210. Duration                       : 23 min 3 s
    211. Bit rate                       : 95 b/s
    212. Count of elements              : 418
    213. Stream size                    : 16.1 KiB (0%)
    214. Title                          : English [CC]
    215. Language                       : English
    216. Default                        : No
    217. Forced                         : No

    218. Text #4
    219. ID                             : 12
    220. Format                         : UTF-8
    221. Codec ID                       : S_TEXT/UTF8
    222. Codec ID/Info                  : UTF-8 Plain Text
    223. Duration                       : 22 min 31 s
    224. Bit rate                       : 88 b/s
    225. Count of elements              : 457
    226. Stream size                    : 14.6 KiB (0%)
    227. Title                          : Espa
    228. Language                       : Spanish
    229. Default                        : No
    230. Forced                         : No

    231. Text #5
    232. ID                             : 13
    233. Format                         : UTF-8
    234. Codec ID                       : S_TEXT/UTF8
    235. Codec ID/Info                  : UTF-8 Plain Text
    236. Duration                       : 22 min 30 s
    237. Bit rate                       : 86 b/s
    238. Count of elements              : 418
    239. Stream size                    : 14.3 KiB (0%)
    240. Title                          : Espa
    241. Language                       : Spanish
    242. Default                        : No
    243. Forced                         : No

    244. Text #6
    245. ID                             : 14
    246. Format                         : UTF-8
    247. Codec ID                       : S_TEXT/UTF8
    248. Codec ID/Info                  : UTF-8 Plain Text
    249. Duration                       : 23 min 2 s
    250. Bit rate                       : 77 b/s
    251. Count of elements              : 383
    252. Stream size                    : 13.0 KiB (0%)
    253. Title                          : Fran
    254. Language                       : French
    255. Default                        : No
    256. Forced                         : No

    257. Text #7
    258. ID                             : 15
    259. Format                         : UTF-8
    260. Codec ID                       : S_TEXT/UTF8
    261. Codec ID/Info                  : UTF-8 Plain Text
    262. Duration                       : 22 min 31 s
    263. Bit rate                       : 94 b/s
    264. Count of elements              : 382
    265. Stream size                    : 15.6 KiB (0%)
    266. Title                          : Indonesia
    267. Language                       : Indonesian
    268. Default                        : No
    269. Forced                         : No

    270. Text #8
    271. ID                             : 16
    272. Format                         : UTF-8
    273. Codec ID                       : S_TEXT/UTF8
    274. Codec ID/Info                  : UTF-8 Plain Text
    275. Duration                       : 22 min 30 s
    276. Bit rate                       : 95 b/s
    277. Count of elements              : 406
    278. Stream size                    : 15.8 KiB (0%)
    279. Title                          : Italiano
    280. Language                       : Italian
    281. Default                        : No
    282. Forced                         : No

    283. Text #9
    284. ID                             : 17
    285. Format                         : UTF-8
    286. Codec ID                       : S_TEXT/UTF8
    287. Codec ID/Info                  : UTF-8 Plain Text
    288. Duration                       : 23 min 3 s
    289. Bit rate                       : 68 b/s
    290. Count of elements              : 276
    291. Stream size                    : 11.5 KiB (0%)
    292. Title                          : Nederlands
    293. Language                       : Dutch
    294. Default                        : No
    295. Forced                         : No

    296. Text #10
    297. ID                             : 18
    298. Format                         : UTF-8
    299. Codec ID                       : S_TEXT/UTF8
    300. Codec ID/Info                  : UTF-8 Plain Text
    301. Duration                       : 23 min 3 s
    302. Bit rate                       : 58 b/s
    303. Count of elements              : 237
    304. Stream size                    : 9.85 KiB (0%)
    305. Title                          : Norsk Bokm
    306. Language                       : Norwegian Bokmal
    307. Default                        : No
    308. Forced                         : No

    309. Text #11
    310. ID                             : 19
    311. Format                         : UTF-8
    312. Codec ID                       : S_TEXT/UTF8
    313. Codec ID/Info                  : UTF-8 Plain Text
    314. Duration                       : 22 min 30 s
    315. Bit rate                       : 82 b/s
    316. Count of elements              : 468
    317. Stream size                    : 13.6 KiB (0%)
    318. Title                          : Polski
    319. Language                       : Polish
    320. Default                        : No
    321. Forced                         : No

    322. Text #12
    323. ID                             : 20
    324. Format                         : UTF-8
    325. Codec ID                       : S_TEXT/UTF8
    326. Codec ID/Info                  : UTF-8 Plain Text
    327. Duration                       : 22 min 31 s
    328. Bit rate                       : 73 b/s
    329. Count of elements              : 400
    330. Stream size                    : 12.1 KiB (0%)
    331. Title                          : Portugu
    332. Language                       : Portuguese
    333. Default                        : No
    334. Forced                         : No

    335. Text #13
    336. ID                             : 21
    337. Format                         : UTF-8
    338. Codec ID                       : S_TEXT/UTF8
    339. Codec ID/Info                  : UTF-8 Plain Text
    340. Duration                       : 23 min 3 s
    341. Bit rate                       : 86 b/s
    342. Count of elements              : 412
    343. Stream size                    : 14.5 KiB (0%)
    344. Title                          : Portugu
    345. Language                       : Portuguese
    346. Default                        : No
    347. Forced                         : No

    348. Text #14
    349. ID                             : 22
    350. Format                         : UTF-8
    351. Codec ID                       : S_TEXT/UTF8
    352. Codec ID/Info                  : UTF-8 Plain Text
    353. Duration                       : 23 min 3 s
    354. Bit rate                       : 76 b/s
    355. Count of elements              : 346
    356. Stream size                    : 13.0 KiB (0%)
    357. Title                          : Suomi
    358. Language                       : Finnish
    359. Default                        : No
    360. Forced                         : No

    361. Text #15
    362. ID                             : 23
    363. Format                         : UTF-8
    364. Codec ID                       : S_TEXT/UTF8
    365. Codec ID/Info                  : UTF-8 Plain Text
    366. Duration                       : 22 min 31 s
    367. Bit rate                       : 77 b/s
    368. Count of elements              : 285
    369. Stream size                    : 12.8 KiB (0%)
    370. Title                          : Svenska
    371. Language                       : Swedish
    372. Default                        : No
    373. Forced                         : No

    374. Text #16
    375. ID                             : 24
    376. Format                         : UTF-8
    377. Codec ID                       : S_TEXT/UTF8
    378. Codec ID/Info                  : UTF-8 Plain Text
    379. Duration                       : 22 min 30 s
    380. Bit rate                       : 94 b/s
    381. Count of elements              : 477
    382. Stream size                    : 15.6 KiB (0%)
    383. Title                          : T
    384. Language                       : Turkish
    385. Default                        : No
    386. Forced                         : No

    387. Text #17
    388. ID                             : 25
    389. Format                         : UTF-8
    390. Codec ID                       : S_TEXT/UTF8
    391. Codec ID/Info                  : UTF-8 Plain Text
    392. Duration                       : 22 min 30 s
    393. Bit rate                       : 162 b/s
    394. Count of elements              : 476
    395. Stream size                    : 26.7 KiB (0%)
    396. Language                       : Russian
    397. Default                        : No
    398. Forced                         : No

    399. Text #18
    400. ID                             : 26
    401. Format                         : UTF-8
    402. Codec ID                       : S_TEXT/UTF8
    403. Codec ID/Info                  : UTF-8 Plain Text
    404. Duration                       : 23 min 3 s
    405. Bit rate                       : 128 b/s
    406. Count of elements              : 419
    407. Stream size                    : 21.7 KiB (0%)
    408. Language                       : Hebrew
    409. Default                        : No
    410. Forced                         : No

    411. Text #19
    412. ID                             : 27
    413. Format                         : UTF-8
    414. Codec ID                       : S_TEXT/UTF8
    415. Codec ID/Info                  : UTF-8 Plain Text
    416. Duration                       : 22 min 30 s
    417. Bit rate                       : 133 b/s
    418. Count of elements              : 476
    419. Stream size                    : 22.0 KiB (0%)
    420. Language                       : Arabic
    421. Default                        : No
    422. Forced                         : No

    423. Text #20
    424. ID                             : 28
    425. Format                         : UTF-8
    426. Codec ID                       : S_TEXT/UTF8
    427. Codec ID/Info                  : UTF-8 Plain Text
    428. Duration                       : 22 min 32 s
    429. Bit rate                       : 231 b/s
    430. Count of elements              : 426
    431. Stream size                    : 38.3 KiB (0%)
    432. Language                       : Marathi
    433. Default                        : No
    434. Forced                         : No

    435. Text #21
    436. ID                             : 29
    437. Format                         : UTF-8
    438. Codec ID                       : S_TEXT/UTF8
    439. Codec ID/Info                  : UTF-8 Plain Text
    440. Duration                       : 22 min 31 s
    441. Bit rate                       : 238 b/s
    442. Count of elements              : 426
    443. Stream size                    : 39.3 KiB (0%)
    444. Language                       : Hindi
    445. Default                        : No
    446. Forced                         : No

    447. Text #22
    448. ID                             : 30
    449. Format                         : UTF-8
    450. Codec ID                       : S_TEXT/UTF8
    451. Codec ID/Info                  : UTF-8 Plain Text
    452. Duration                       : 22 min 31 s
    453. Bit rate                       : 229 b/s
    454. Count of elements              : 426
    455. Stream size                    : 37.8 KiB (0%)
    456. Language                       : Bengali
    457. Default                        : No
    458. Forced                         : No

    459. Text #23
    460. ID                             : 31
    461. Format                         : UTF-8
    462. Codec ID                       : S_TEXT/UTF8
    463. Codec ID/Info                  : UTF-8 Plain Text
    464. Duration                       : 22 min 31 s
    465. Bit rate                       : 283 b/s
    466. Count of elements              : 426
    467. Stream size                    : 46.7 KiB (0%)
    468. Language                       : Telugu
    469. Default                        : No
    470. Forced                         : No

    471. Text #24
    472. ID                             : 32
    473. Format                         : UTF-8
    474. Codec ID                       : S_TEXT/UTF8
    475. Codec ID/Info                  : UTF-8 Plain Text
    476. Duration                       : 22 min 31 s
    477. Bit rate                       : 232 b/s
    478. Count of elements              : 417
    479. Stream size                    : 38.3 KiB (0%)
    480. Language                       : Thai
    481. Default                        : No
    482. Forced                         : No

    483. Text #25
    484. ID                             : 33
    485. Format                         : UTF-8
    486. Codec ID                       : S_TEXT/UTF8
    487. Codec ID/Info                  : UTF-8 Plain Text
    488. Duration                       : 22 min 31 s
    489. Bit rate                       : 76 b/s
    490. Count of elements              : 482
    491. Stream size                    : 12.6 KiB (0%)
    492. Language                       : Chinese
    493. Default                        : No
    494. Forced                         : No

    495. Text #26
    496. ID                             : 34
    497. Format                         : UTF-8
    498. Codec ID                       : S_TEXT/UTF8
    499. Codec ID/Info                  : UTF-8 Plain Text
    500. Duration                       : 22 min 31 s
    501. Bit rate                       : 87 b/s
    502. Count of elements              : 462
    503. Stream size                    : 14.5 KiB (0%)
    504. Language                       : Chinese
    505. Default                        : No
    506. Forced                         : No

    507. Text #27
    508. ID                             : 35
    509. Format                         : UTF-8
    510. Codec ID                       : S_TEXT/UTF8
    511. Codec ID/Info                  : UTF-8 Plain Text
    512. Duration                       : 22 min 32 s
    513. Bit rate                       : 71 b/s
    514. Count of elements              : 354
    515. Stream size                    : 11.7 KiB (0%)
    516. Language                       : Japanese
    517. Default                        : No
    518. Forced                         : No

    519. Text #28
    520. ID                             : 36
    521. Format                         : UTF-8
    522. Codec ID                       : S_TEXT/UTF8
    523. Codec ID/Info                  : UTF-8 Plain Text
    524. Duration                       : 22 min 31 s
    525. Bit rate                       : 77 b/s
    526. Count of elements              : 368
    527. Stream size                    : 12.7 KiB (0%)
    528. Language                       : Korean
    529. Default                        : No
    530. Forced                         : No

    复制代码






    购买主题 已有 5 人购买  本主题需向作者支付 200 大洋 才能浏览
    回复

    使用道具 举报

  • TA的每日心情
    慵懒
    昨天 08:25
  • 签到天数: 143 天

    [LV.7]常住居民III

    4

    主题

    906

    帖子

    115

    积分

    中级影迷

    Rank: 3Rank: 3

    积分
    115
    发表于 2020-7-13 13:17:33 | 显示全部楼层
    感谢分享
    回复

    使用道具 举报

  • TA的每日心情
    开心
    昨天 12:43
  • 签到天数: 234 天

    [LV.7]常住居民III

    5

    主题

    2268

    帖子

    249

    积分

    高级影迷

    Rank: 4

    积分
    249
    发表于 2020-7-13 15:04:22 | 显示全部楼层
    多谢分享!
    回复

    使用道具 举报

  • TA的每日心情
    开心
    昨天 00:49
  • 签到天数: 265 天

    [LV.8]以坛为家I

    7

    主题

    2004

    帖子

    481

    积分

    专业影迷

    Rank: 8Rank: 8

    积分
    481
    发表于 2020-7-13 21:14:40 | 显示全部楼层
    感谢分享宋飞正传.S01-S09
    回复

    使用道具 举报

  • TA的每日心情

    2020-7-26 08:14
  • 签到天数: 50 天

    [LV.5]常住居民I

    31

    主题

    174

    帖子

    331

    积分

    超级影迷

    Rank: 6Rank: 6

    积分
    331
    发表于 2020-7-14 16:41:15 | 显示全部楼层
    这容量有点厉害,纯支持。
    回复

    使用道具 举报

    该用户从未签到

    0

    主题

    1

    帖子

    15

    积分

    入门影迷

    Rank: 1

    积分
    15
    发表于 2020-7-16 14:53:12 | 显示全部楼层
    感谢无私分享宋飞正传.S01-S09 辛苦了!
    回复

    使用道具 举报

  • TA的每日心情
    开心
    2020-7-31 16:09
  • 签到天数: 4 天

    [LV.2]偶尔看看I

    0

    主题

    424

    帖子

    47

    积分

    初级影迷

    Rank: 2

    积分
    47
    发表于 2020-7-16 17:37:23 | 显示全部楼层
    感谢分享,收藏了
    回复

    使用道具 举报

  • TA的每日心情
    郁闷
    昨天 09:13
  • 签到天数: 90 天

    [LV.6]常住居民II

    4

    主题

    1071

    帖子

    112

    积分

    中级影迷

    Rank: 3Rank: 3

    积分
    112
    发表于 2020-7-20 09:48:41 | 显示全部楼层
    感谢分享,收藏了
    回复

    使用道具 举报

  • TA的每日心情

    4 天前
  • 签到天数: 51 天

    [LV.5]常住居民I

    2

    主题

    507

    帖子

    29

    积分

    初级影迷

    Rank: 2

    积分
    29
    发表于 2020-8-14 22:59:34 | 显示全部楼层
    当年看就很好看啊
    回复

    使用道具 举报

  • TA的每日心情

    昨天 14:04
  • 签到天数: 33 天

    [LV.5]常住居民I

    4

    主题

    841

    帖子

    128

    积分

    中级影迷

    Rank: 3Rank: 3

    积分
    128
    发表于 2020-8-19 21:32:27 | 显示全部楼层
    感谢分享感谢分享
    回复

    使用道具 举报

    您需要登录后才可以回帖 登录 | 立即注册

    本版积分规则

    QQ|Archiver|手机版|小黑屋|影迷乐园

    GMT+8, 2020-10-28 02:10 , Processed in 0.069389 second(s), 28 queries .

    Powered by Discuz! X3.4

    Copyright © 2001-2020, Tencent Cloud.

    快速回复 返回顶部 返回列表