请选择 进入手机版 | 继续访问电脑版

YMLY-影迷乐园-特效字幕 蓝光原盘 1080P 高清动漫电影电视剧

 找回密码
 立即注册
搜索
查看: 96|回复: 18

[修复版] [百度][1980][4K][三个和尚.上美高清修复版][国语无字][276MB][MP4][Three.Monks.1981.WEB-DL.4K.H265.AAC-PTerWEB]

[复制链接]
  • TA的每日心情
    慵懒
    9 小时前
  • 签到天数: 146 天

    [LV.7]常住居民III

    201

    主题

    672

    帖子

    1717

    积分

    超级版主

    Rank: 16Rank: 16Rank: 16Rank: 16

    积分
    1717

    超版勋章版主勋章土豪勋章小土豪勋章最佳新人十二生肖之猴双鱼座勋章百分百好孩子精华勋章

    发表于 2020-7-26 18:43:17 | 显示全部楼层 |阅读模式
    下载说明:

    百度网盘分享极其不稳定,如有链接失效,请第一时间站内短消息通知我,上线后会第一时间补发!



    ◎译  名 Three Monks
    ◎片  名 三个和尚
    ◎年  代 1980
    ◎产  地 中国大陆
    ◎类  别 动画 / 短片
    ◎语  言 汉语普通话
    ◎上映日期 1980(中国大陆) / 1982-02(西德)
    ◎IMDb评分  7.7/10 from 246 users
    ◎IMDb链接  https://www.imdb.com/title/tt0133191
    ◎豆瓣评分 8.7/10 from 81237 users
    ◎豆瓣链接 https://movie.douban.com/subject/1431699/
    ◎片  长 20分钟
    ◎导  演 徐景达 Jingda Xu / 马克宣 Kexuan Ma
    ◎编  剧 包蕾 Lei Bao

    ◎标  签 国产动画 | 动画 | 童年 | 经典 | 中国 | 三个和尚 | 大陆 | 动画片

    ◎简  介  

      三个和尚没水喝的民间故事家喻户晓,本动画片在故事上有一定的新编,形式也异常鲜活好玩。
      红衣小和尚不远千里来到一座高高耸立在山顶上的寺庙,立刻做起快乐勤劳的小主持,虽然挑水只能到山下很是辛苦,他仍做得乐此不疲。不久,来了一个蓝衣瘦高和尚,下山挑水的重任于是落在他的身上,很快,瘦高和尚因为该问题同小和尚发生冲突,两人开始抬水喝。后来,他们又迎来一个黄衣胖和尚,胖和尚刚入寺庙,就把水缸里的水喝了个光,小和尚和瘦高和尚一下不乐意了,三个和尚为如何抬水吃水问题大打出手。老鼠咬断香烛引发的一场大火,让三个和尚明白了一个道理。

    ◎获奖情况  

      第1届中国电影金鸡奖(1981)
      最佳美术片

    1. General
    2. Complete name                  : Three.Monks.1981.WEB-DL.4K.H265.AAC-PTerWEB.mp4
    3. Format                         : MPEG-4
    4. Format profile                 : Base Media
    5. Codec ID                       : isom (isom/iso2/mp41)
    6. File size                      : 277 MiB
    7. Duration                       : 19 min 38 s
    8. Overall bit rate               : 1 969 kb/s
    9. Writing application            : Lavf58.35.100

    10. Video
    11. ID                             : 1
    12. Format                         : HEVC
    13. Format/Info                    : High Efficiency Video Coding
    14. Format profile                 : Main@L5@Main
    15. Codec ID                       : hev1
    16. Codec ID/Info                  : High Efficiency Video Coding
    17. Duration                       : 19 min 38 s
    18. Bit rate                       : 1 834 kb/s
    19. Width                          : 3 840 pixels
    20. Height                         : 2 160 pixels
    21. Display aspect ratio           : 16:9
    22. Frame rate mode                : Variable
    23. Frame rate                     : 24.000 FPS
    24. Minimum frame rate             : 23.994 FPS
    25. Maximum frame rate             : 24.006 FPS
    26. Color space                    : YUV
    27. Chroma subsampling             : 4:2:0
    28. Bit depth                      : 8 bits
    29. Bits/(Pixel*Frame)             : 0.009
    30. Stream size                    : 258 MiB (93%)
    31. Codec configuration box        : hvcC

    32. Audio
    33. ID                             : 2
    34. Format                         : AAC LC
    35. Format/Info                    : Advanced Audio Codec Low Complexity
    36. Codec ID                       : mp4a-40-2
    37. Duration                       : 19 min 38 s
    38. Bit rate mode                  : Constant
    39. Bit rate                       : 128 kb/s
    40. Channel(s)                     : 2 channels
    41. Channel layout                 : L R
    42. Sampling rate                  : 48.0 kHz
    43. Frame rate                     : 46.875 FPS (1024 SPF)
    44. Compression mode               : Lossy
    45. Stream size                    : 18.0 MiB (6%)
    46. Default                        : Yes
    47. Alternate group                : 1
    复制代码







    购买主题 已有 16 人购买  本主题需向作者支付 10 大洋 才能浏览
    声明:本人制作或发布的所有资源仅限论坛会员测试带宽使用!请在测试后24小时内删除!
    严禁非法传播或用于商业用途,对用于商业用途所产生的法律责任,由使用者自负!
    回复

    使用道具 举报

  • TA的每日心情
    奋斗
    9 小时前
  • 签到天数: 52 天

    [LV.5]常住居民I

    0

    主题

    539

    帖子

    64

    积分

    初级影迷

    Rank: 2

    积分
    64
    发表于 2020-7-26 21:16:17 | 显示全部楼层
    很不错的啊
    回复

    使用道具 举报

  • TA的每日心情

    2020-7-26 08:14
  • 签到天数: 50 天

    [LV.5]常住居民I

    26

    主题

    152

    帖子

    209

    积分

    高级影迷

    Rank: 4

    积分
    209
    发表于 2020-7-26 21:23:09 | 显示全部楼层
    这部音乐很不错。
    回复

    使用道具 举报

  • TA的每日心情
    开心
    9 小时前
  • 签到天数: 148 天

    [LV.7]常住居民III

    1

    主题

    341

    帖子

    38

    积分

    初级影迷

    Rank: 2

    积分
    38
    发表于 2020-7-26 21:30:46 | 显示全部楼层
    感谢楼主分享
    回复

    使用道具 举报

  • TA的每日心情
    慵懒
    昨天 00:48
  • 签到天数: 83 天

    [LV.6]常住居民II

    19

    主题

    1035

    帖子

    331

    积分

    超级影迷

    Rank: 6Rank: 6

    积分
    331
    发表于 2020-7-26 21:55:05 | 显示全部楼层
    小时候的回忆,下来看看,谢了
    回复

    使用道具 举报

  • TA的每日心情
    开心
    9 小时前
  • 签到天数: 121 天

    [LV.7]常住居民III

    0

    主题

    361

    帖子

    24

    积分

    入门影迷

    Rank: 1

    积分
    24
    发表于 2020-7-26 23:32:28 | 显示全部楼层
    谢谢楼主分享,期待天书奇谈
    回复

    使用道具 举报

  • TA的每日心情
    慵懒
    9 小时前
  • 签到天数: 146 天

    [LV.7]常住居民III

    201

    主题

    672

    帖子

    1717

    积分

    超级版主

    Rank: 16Rank: 16Rank: 16Rank: 16

    积分
    1717

    超版勋章版主勋章土豪勋章小土豪勋章最佳新人十二生肖之猴双鱼座勋章百分百好孩子精华勋章

     楼主| 发表于 2020-7-26 23:34:06 | 显示全部楼层
    nayakid 发表于 2020-7-26 23:32
    谢谢楼主分享,期待天书奇谈

    天书奇谭只有CCTV6源码版 9000码率 已经很不错了
    http://www.hdymly.com/forum.php? ... &extra=page%3D1
    声明:本人制作或发布的所有资源仅限论坛会员测试带宽使用!请在测试后24小时内删除!
    严禁非法传播或用于商业用途,对用于商业用途所产生的法律责任,由使用者自负!
    回复

    使用道具 举报

  • TA的每日心情
    开心
    9 小时前
  • 签到天数: 121 天

    [LV.7]常住居民III

    0

    主题

    361

    帖子

    24

    积分

    入门影迷

    Rank: 1

    积分
    24
    发表于 2020-7-27 00:08:00 | 显示全部楼层
    zflzemail 发表于 2020-7-26 23:34
    天书奇谭只有CCTV6源码版 9000码率 已经很不错了
    http://www.hdymly.com/forum.php?mod=viewthread&tid= ...

    多谢多谢!先收藏这版~
    回复

    使用道具 举报

  • TA的每日心情
    擦汗
    11 分钟前
  • 签到天数: 96 天

    [LV.6]常住居民II

    1

    主题

    177

    帖子

    32

    积分

    初级影迷

    Rank: 2

    积分
    32
    发表于 2020-7-27 00:23:33 | 显示全部楼层
    感谢分享!
    回复

    使用道具 举报

  • TA的每日心情
    开心
    前天 07:49
  • 签到天数: 62 天

    [LV.6]常住居民II

    0

    主题

    141

    帖子

    23

    积分

    入门影迷

    Rank: 1

    积分
    23
    发表于 2020-7-27 08:06:45 | 显示全部楼层
    NICE,非常感谢分享!
    回复

    使用道具 举报

    您需要登录后才可以回帖 登录 | 立即注册

    本版积分规则

    QQ|Archiver|手机版|小黑屋|影迷乐园  

    GMT+8, 2020-8-9 09:51 , Processed in 0.176329 second(s), 40 queries .

    Powered by Discuz! X3.3

    © 2001-2017 Comsenz Inc.

    快速回复 返回顶部 返回列表