请选择 进入手机版 | 继续访问电脑版

YMLY-影迷乐园-特效字幕 蓝光原盘 1080P 高清动漫电影电视剧

 找回密码
 立即注册
搜索
查看: 70|回复: 13

[修复版] [百度][1956][4K][骄傲的将军.上美高清修复版][国语无字][471MB][MP4][The.Proud.General.1956.WEB-DL.4K.H265.AAC-PTerWEB]

[复制链接]
  • TA的每日心情
    慵懒
    9 小时前
  • 签到天数: 146 天

    [LV.7]常住居民III

    201

    主题

    672

    帖子

    1717

    积分

    超级版主

    Rank: 16Rank: 16Rank: 16Rank: 16

    积分
    1717

    超版勋章版主勋章土豪勋章小土豪勋章最佳新人十二生肖之猴双鱼座勋章百分百好孩子精华勋章

    发表于 2020-7-26 19:01:56 | 显示全部楼层 |阅读模式
    下载说明:

    百度网盘分享极其不稳定,如有链接失效,请第一时间站内短消息通知我,上线后会第一时间补发!



    ◎译  名 
    ◎片  名 骄傲的将军
    ◎年  代 1956
    ◎产  地 中国大陆
    ◎类  别 剧情 / 动画 / 短片
    ◎语  言 汉语普通话
    ◎上映日期 1956
    ◎IMDb评分  6.6/10 from 51 users
    ◎IMDb链接  https://www.imdb.com/title/tt6824904
    ◎豆瓣评分 8.2/10 from 11214 users
    ◎豆瓣链接 https://movie.douban.com/subject/1883634/
    ◎片  长 30分钟
    ◎导  演 特伟 Wei Te / 李克弱 Keruo Li
    ◎编  剧 华君武

    ◎标  签 国产动画 | 动画 | 童年 | 中国 | 中国动画 | 童年回忆 | 经典 | 大陆

    ◎简  介  

      本美术片人物造型借鉴了京剧脸谱艺术,是“中国动画学派”的开山之作。
      将军以一敌百大胜归来,庆功宴上,众属下纷纷献上恭维之词,将军听得心花怒放大秀武艺,博来一片叫好声。自此,将军认为天下已经太平,无需再每日练功,他和属下的生活变作吃喝玩乐,大英雄将军在百姓心中渐渐变作大草包,可是他很不以为然,照旧每日饮酒行乐,拍马屁的声音自然也仍不绝于耳。好景不长,在将军大寿之日,敌人突然出兵进攻,众属下忙作鸟兽散,将军临阵磨枪,发现自己早已成了废物。

    1. General
    2. Complete name                  : The.Proud.General.1956.WEB-DL.4K.H265.AAC-PTerWEB.mp4
    3. Format                         : MPEG-4
    4. Format profile                 : Base Media
    5. Codec ID                       : isom (isom/iso2/mp41)
    6. File size                      : 471 MiB
    7. Duration                       : 24 min 36 s
    8. Overall bit rate               : 2 676 kb/s
    9. Writing application            : Lavf58.35.100

    10. Video
    11. ID                             : 1
    12. Format                         : HEVC
    13. Format/Info                    : High Efficiency Video Coding
    14. Format profile                 : Main@L5@Main
    15. Codec ID                       : hev1
    16. Codec ID/Info                  : High Efficiency Video Coding
    17. Duration                       : 24 min 36 s
    18. Bit rate                       : 2 541 kb/s
    19. Width                          : 3 840 pixels
    20. Height                         : 2 160 pixels
    21. Display aspect ratio           : 16:9
    22. Frame rate mode                : Variable
    23. Frame rate                     : 24.000 FPS
    24. Minimum frame rate             : 23.994 FPS
    25. Maximum frame rate             : 24.006 FPS
    26. Color space                    : YUV
    27. Chroma subsampling             : 4:2:0
    28. Bit depth                      : 8 bits
    29. Bits/(Pixel*Frame)             : 0.013
    30. Stream size                    : 447 MiB (95%)
    31. Codec configuration box        : hvcC

    32. Audio
    33. ID                             : 2
    34. Format                         : AAC LC
    35. Format/Info                    : Advanced Audio Codec Low Complexity
    36. Codec ID                       : mp4a-40-2
    37. Duration                       : 24 min 36 s
    38. Bit rate mode                  : Constant
    39. Bit rate                       : 128 kb/s
    40. Channel(s)                     : 2 channels
    41. Channel layout                 : L R
    42. Sampling rate                  : 48.0 kHz
    43. Frame rate                     : 46.875 FPS (1024 SPF)
    44. Compression mode               : Lossy
    45. Stream size                    : 22.5 MiB (5%)
    46. Default                        : Yes
    47. Alternate group                : 1
    复制代码






    购买主题 已有 12 人购买  本主题需向作者支付 10 大洋 才能浏览
    声明:本人制作或发布的所有资源仅限论坛会员测试带宽使用!请在测试后24小时内删除!
    严禁非法传播或用于商业用途,对用于商业用途所产生的法律责任,由使用者自负!
    回复

    使用道具 举报

  • TA的每日心情
    奋斗
    10 小时前
  • 签到天数: 52 天

    [LV.5]常住居民I

    0

    主题

    539

    帖子

    64

    积分

    初级影迷

    Rank: 2

    积分
    64
    发表于 2020-7-26 21:14:02 | 显示全部楼层
    全部收藏了
    回复

    使用道具 举报

  • TA的每日心情

    2020-7-26 08:14
  • 签到天数: 50 天

    [LV.5]常住居民I

    26

    主题

    152

    帖子

    209

    积分

    高级影迷

    Rank: 4

    积分
    209
    发表于 2020-7-26 21:20:09 | 显示全部楼层
    经典,非常有教育意义。
    回复

    使用道具 举报

  • TA的每日心情
    开心
    10 小时前
  • 签到天数: 148 天

    [LV.7]常住居民III

    1

    主题

    341

    帖子

    38

    积分

    初级影迷

    Rank: 2

    积分
    38
    发表于 2020-7-26 21:28:11 | 显示全部楼层
    感谢楼主分享
    回复

    使用道具 举报

  • TA的每日心情
    慵懒
    昨天 00:48
  • 签到天数: 83 天

    [LV.6]常住居民II

    19

    主题

    1035

    帖子

    331

    积分

    超级影迷

    Rank: 6Rank: 6

    积分
    331
    发表于 2020-7-26 23:06:18 | 显示全部楼层
    这个还真没看过,收藏了
    回复

    使用道具 举报

  • TA的每日心情
    开心
    9 小时前
  • 签到天数: 121 天

    [LV.7]常住居民III

    0

    主题

    361

    帖子

    24

    积分

    入门影迷

    Rank: 1

    积分
    24
    发表于 2020-7-26 23:25:14 | 显示全部楼层
    谢谢楼主分享
    回复

    使用道具 举报

  • TA的每日心情
    开心
    前天 07:49
  • 签到天数: 62 天

    [LV.6]常住居民II

    0

    主题

    141

    帖子

    23

    积分

    入门影迷

    Rank: 1

    积分
    23
    发表于 2020-7-27 08:08:00 | 显示全部楼层
    谢谢幕后辛苦的楼主!
    回复

    使用道具 举报

  • TA的每日心情
    奋斗
    19 分钟前
  • 签到天数: 464 天

    [LV.9]以坛为家II

    37

    主题

    5278

    帖子

    642

    积分

    专业影迷

    Rank: 8Rank: 8

    积分
    642
    发表于 2020-7-27 10:07:19 | 显示全部楼层
    真是好资源啊~~~谢谢!
    回复

    使用道具 举报

  • TA的每日心情
    慵懒
    2 小时前
  • 签到天数: 132 天

    [LV.7]常住居民III

    6

    主题

    1898

    帖子

    102

    积分

    中级影迷

    Rank: 3Rank: 3

    积分
    102
    QQ
    发表于 2020-7-27 10:53:49 | 显示全部楼层
    谢谢分享谢谢分享
    回复

    使用道具 举报

  • TA的每日心情
    郁闷
    4 天前
  • 签到天数: 83 天

    [LV.6]常住居民II

    4

    主题

    247

    帖子

    20

    积分

    入门影迷

    Rank: 1

    积分
    20
    发表于 2020-7-27 13:37:37 | 显示全部楼层
    感谢大神,多多益善,继续支持!
    回复

    使用道具 举报

    您需要登录后才可以回帖 登录 | 立即注册

    本版积分规则

    QQ|Archiver|手机版|小黑屋|影迷乐园  

    GMT+8, 2020-8-9 10:03 , Processed in 0.154289 second(s), 36 queries .

    Powered by Discuz! X3.3

    © 2001-2017 Comsenz Inc.

    快速回复 返回顶部 返回列表