请选择 进入手机版 | 继续访问电脑版

YMLY-影迷乐园-特效字幕 蓝光原盘 1080P 高清动漫电影电视剧

 找回密码
 立即注册
搜索
查看: 118|回复: 11

[大陆] [百度][2000][少年包青天1.周杰版][国粤双语][40集全][MKV][25.6GB][702x540.DVDRip.X264.AC3]

[复制链接]
  • TA的每日心情

    2020-7-26 08:14
  • 签到天数: 50 天

    [LV.5]常住居民I

    26

    主题

    152

    帖子

    211

    积分

    高级影迷

    Rank: 4

    积分
    211
    发表于 2020-7-30 09:44:03 | 显示全部楼层 |阅读模式

    自压资源,每集有完整片头片尾,做了反交错,基本看不到锯齿和横纹,稍微修剪了下黑边。
    原盘没有中文字幕,并且每碟有5-6集,画质一般。




    ◎译  名 少年包青天 第一部
    ◎片  名 少年包青天
    ◎年  代 2000
    ◎产  地 中国内地
    ◎类  别 剧情 / 悬疑 / 古装
    ◎语  言 汉语普通话
    ◎上映日期 2000-09-04(中国香港)
    ◎IMDb评分  7.4/10 from 60 users
    ◎IMDb链接  https://www.imdb.com/title/tt6788684
    ◎豆瓣评分 8.3/10 from 108544 users
    ◎豆瓣链接 https://movie.douban.com/subject/2157131/
    ◎集  数 40
    ◎片  长 45分钟
    ◎导  演 胡明凯 Ming-Hoi Woo
    ◎编  剧 黄浩华 Ho-Wa Wong
    ◎主  演 周杰 Jie Zhou
           释小龙 Siu Lung Sik
           任泉 Quan Ren
           李冰冰 Bingbing Li
           陈道明 Daoming Chen
           刘怡君 Yijun Liu
           刘晓虎 Tiger Liu
           郑佩佩 Pei-pei Cheng
           王绘春 Huichun Wang
           何中华 Zhonghua He


    ◎标  签 电视剧 | 古装 | 国产电视剧 | 少年包青天 | 悬疑 | 推理 | 周杰 | 大陆

    ◎简  介  

      包青天已经成为后世清廉的象征,若追溯到他的青年时代,稍显生涩的包拯(周杰 饰)一心追求着真理,发掘事实真相比功名利禄重要。还在求学准备科举的包拯已是庐州著名的才子,同学中另有一名才子公孙策(任泉 饰)也是一个心高气傲的聪明人,总是想与包拯一较高下。但每次破案都是被包拯抢 先一步,渐渐地被包拯的才智和胆识所折服。而误打误撞认识的凌楚楚(李冰冰 饰)其实背负着血海深仇,当她用计把包拯一行人带到自己从小生活的村庄,以求包拯寻找出当年父亲失踪的真相时,大家对楚楚平日的活泼好动背后故事有了更深的了解。包拯多次得罪权贵,以求真相,日后成为有名的清官在这个时候就已有迹可循。



    General
    Unique ID                      : 249840745973300371087501077949583000314 (0xBBF593D07933FBC35CB17897BE8902FA)
    Complete name                  : F:少年包青天.E29.DVDRip.x264.AC3.mkv
    Format                         : Matroska
    Format version                 : Version 4 / Version 2
    File size                      : 701 MiB
    Duration                       : 45 min 26 s
    Overall bit rate mode          : Variable
    Overall bit rate               : 2 158 kb/s
    Encoded date                   : UTC 2020-07-28 21:41:30
    Writing application            : mkvmerge v48.0.0 ('Fortress Around Your Heart') 64-bit
    Writing library                : libebml v1.4.0 + libmatroska v1.6.0

    Video
    ID                             : 1
    Format                         : AVC
    Format/Info                    : Advanced Video Codec
    Format profile                 : High@L4.1
    Format settings                : CABAC / 3 Ref Frames
    Format settings, CABAC         : Yes
    Format settings, ReFrames      : 3 frames
    Codec ID                       : V_MPEG4/ISO/AVC
    Duration                       : 45 min 25 s
    Bit rate mode                  : Variable
    Bit rate                       : 1 771 kb/s
    Maximum bit rate               : 6 000 kb/s
    Width                          : 704 pixels
    Height                         : 480 pixels
    Display aspect ratio           : 4:3
    Frame rate mode                : Constant
    Frame rate                     : 29.970 (30000/1001) FPS
    Standard                       : NTSC
    Color space                    : YUV
    Chroma subsampling             : 4:2:0
    Bit depth                      : 8 bits
    Scan type                      : Progressive
    Bits/(Pixel*Frame)             : 0.175
    Stream size                    : 576 MiB (82%)
    Writing library                : x264 core 115
    Encoding settings              : cabac=1 / ref=3 / deblock=1:0:0 / analyse=0x3:0x113 / me=hex / subme=7 / psy=1 / psy_rd=1.00:0.00 / mixed_ref=1 / me_range=16 / chroma_me=1 / trellis=1 / 8x8dct=1 / cqm=2 / deadzone=21,11 / fast_pskip=1 / chroma_qp_offset=-2 / threads=6 / sliced_threads=0 / slices=1 / nr=0 / decimate=1 / interlaced=0 / bluray_compat=1 / constrained_intra=0 / bframes=3 / b_pyramid=0 / b_adapt=1 / b_bias=0 / direct=1 / weightb=1 / open_gop=0 / weightp=1 / keyint=250 / keyint_min=25 / scenecut=40 / intra_refresh=0 / rc_lookahead=40 / rc=crf / mbtree=1 / crf=21.0 / qcomp=0.60 / qpmin=3 / qpmax=69 / qpstep=4 / vbv_maxrate=6000 / vbv_bufsize=5996 / crf_max=51.0 / nal_hrd=vbr / ip_ratio=1.40 / aq=1:1.00
    Default                        : Yes
    Forced                         : No
    Color range                    : Limited
    Color primaries                : BT.601 NTSC
    Transfer characteristics       : BT.601
    Matrix coefficients            : BT.601

    Audio #1
    ID                             : 2
    Format                         : AC-3
    Format/Info                    : Audio Coding 3
    Codec ID                       : A_AC3
    Duration                       : 45 min 26 s
    Bit rate mode                  : Constant
    Bit rate                       : 192 kb/s
    Channel(s)                     : 2 channels
    Channel positions              : Front: L R
    Sampling rate                  : 48.0 kHz
    Frame rate                     : 31.250 FPS (1536 SPF)
    Bit depth                      : 16 bits
    Compression mode               : Lossy
    Stream size                    : 62.4 MiB (9%)
    Title                          : 国语
    Language                       : Chinese
    Service kind                   : Complete Main
    Default                        : Yes
    Forced                         : No

    Audio #2
    ID                             : 3
    Format                         : AC-3
    Format/Info                    : Audio Coding 3
    Codec ID                       : A_AC3
    Duration                       : 45 min 26 s
    Bit rate mode                  : Constant
    Bit rate                       : 192 kb/s
    Channel(s)                     : 2 channels
    Channel positions              : Front: L R
    Sampling rate                  : 48.0 kHz
    Frame rate                     : 31.250 FPS (1536 SPF)
    Bit depth                      : 16 bits
    Compression mode               : Lossy
    Stream size                    : 62.4 MiB (9%)
    Title                          : 粤语
    Language                       : Chinese
    Service kind                   : Complete Main
    Default                        : No
    Forced                         : No


    购买主题 已有 2 人购买  本主题需向作者支付 20 大洋 才能浏览
    回复

    使用道具 举报

  • TA的每日心情
    慵懒
    6 小时前
  • 签到天数: 135 天

    [LV.7]常住居民III

    6

    主题

    1945

    帖子

    104

    积分

    中级影迷

    Rank: 3Rank: 3

    积分
    104
    QQ
    发表于 2020-7-30 10:19:23 | 显示全部楼层
    谢谢分享谢谢分享
    回复

    使用道具 举报

  • TA的每日心情
    慵懒
    9 小时前
  • 签到天数: 320 天

    [LV.8]以坛为家I

    8

    主题

    418

    帖子

    51

    积分

    初级影迷

    Rank: 2

    积分
    51
    发表于 2020-7-30 10:36:57 | 显示全部楼层
    多谢分享,看看
    回复

    使用道具 举报

  • TA的每日心情
    开心
    2 小时前
  • 签到天数: 143 天

    [LV.7]常住居民III

    0

    主题

    1329

    帖子

    156

    积分

    高级影迷

    Rank: 4

    积分
    156
    发表于 2020-7-30 10:52:02 | 显示全部楼层
    多谢分享!
    回复

    使用道具 举报

  • TA的每日心情
    奋斗
    15 小时前
  • 签到天数: 36 天

    [LV.5]常住居民I

    25

    主题

    854

    帖子

    181

    积分

    高级影迷

    Rank: 4

    积分
    181
    发表于 2020-7-30 11:52:57 | 显示全部楼层
    童年阴影!!!!
    回复

    使用道具 举报

  • TA的每日心情
    开心
    14 小时前
  • 签到天数: 395 天

    [LV.9]以坛为家II

    9

    主题

    772

    帖子

    94

    积分

    中级影迷

    Rank: 3Rank: 3

    积分
    94
    发表于 2020-7-30 11:54:56 | 显示全部楼层
    很喜欢这部电视剧!!!
    回复

    使用道具 举报

  • TA的每日心情

    19 小时前
  • 签到天数: 39 天

    [LV.5]常住居民I

    0

    主题

    326

    帖子

    90

    积分

    中级影迷

    Rank: 3Rank: 3

    积分
    90
    发表于 2020-7-31 00:26:50 | 显示全部楼层
    谢谢楼主分享
    回复

    使用道具 举报

  • TA的每日心情

    19 小时前
  • 签到天数: 55 天

    [LV.5]常住居民I

    1

    主题

    574

    帖子

    75

    积分

    中级影迷

    Rank: 3Rank: 3

    积分
    75
    发表于 2020-7-31 00:34:23 | 显示全部楼层
    非常经典了
    回复

    使用道具 举报

  • TA的每日心情

    12 小时前
  • 签到天数: 16 天

    [LV.4]偶尔看看III

    0

    主题

    123

    帖子

    45

    积分

    初级影迷

    Rank: 2

    积分
    45
    发表于 2020-7-31 07:59:14 | 显示全部楼层
    支持 不错~
    回复

    使用道具 举报

  • TA的每日心情
    开心
    6 天前
  • 签到天数: 16 天

    [LV.4]偶尔看看III

    0

    主题

    130

    帖子

    60

    积分

    初级影迷

    Rank: 2

    积分
    60
    发表于 2020-7-31 08:34:57 | 显示全部楼层
    感谢楼主分享
    回复

    使用道具 举报

    您需要登录后才可以回帖 登录 | 立即注册

    本版积分规则

    QQ|Archiver|手机版|小黑屋|影迷乐园  

    GMT+8, 2020-8-12 19:58 , Processed in 0.176733 second(s), 32 queries .

    Powered by Discuz! X3.3

    © 2001-2017 Comsenz Inc.

    快速回复 返回顶部 返回列表