请选择 进入手机版 | 继续访问电脑版

YMLY-影迷乐园-特效字幕 蓝光原盘 1080P 高清动漫电影电视剧

 找回密码
 立即注册
搜索
查看: 65|回复: 8

[大陆] [百度][2003][走向共和][国语中字][68集全][MKV][33.6GB][720x480.DVDRip.X264.AC3]

[复制链接]
  • TA的每日心情

    2020-7-26 08:14
  • 签到天数: 50 天

    [LV.5]常住居民I

    26

    主题

    152

    帖子

    211

    积分

    高级影迷

    Rank: 4

    积分
    211
    发表于 2020-7-30 09:58:57 | 显示全部楼层 |阅读模式

    经典剧集,网上基本都是CMCT的压制版,画面锯齿和水波纹比较严重。本人重新压制了一版,做了反交错,画面还算看得过去。
    每集完整片头片尾,保留原盘AC3音轨和字幕,字幕其实只有开始的第几集,正片是繁中硬字幕,未删节版基本都是这个原盘压的。




    ◎译  名 For the Sake of the Republic / 满清末代王朝(台)
    ◎片  名 走向共和
    ◎年  代 2003
    ◎产  地 中国内地
    ◎类  别 剧情 / 历史
    ◎语  言 汉语普通话 / 英语 / 日语
    ◎上映日期 2003-04-12(中国内地)
    ◎IMDb评分  9.1/10 from 101 users
    ◎IMDb链接  http://www.imdb.com/title/tt1841462
    ◎豆瓣评分 9.7/10 from 45,036 users
    ◎豆瓣链接 https://movie.douban.com/subject/1441794/
    ◎集  数 59
    ◎片  长 45分钟
    ◎导  演 张黎 Li Zhang
    ◎编  剧 盛和煜 Heyu Sheng / 张建伟 Jianwei Zhang
    ◎主  演 王冰 Bing Wang
           吕中 Zhong Lü
           马少骅 Shaohua Ma
           孙淳 Chun Sun
           李光洁 Guangjie Li
           孙宁 Ning Sun
           徐敏 Min Xu
           郑天庸 Tianyong Zheng
           戈治均 Zhijun Ge
           廖丙炎 Bingyan Liao
           张洪睿 Hongrui Zhang


    ◎标  签 历史 | 近代史 | 走向共和 | 晚清历史 | 电视剧 | 中国 | 国产电视剧 | 民国

    ◎简  介  

      19世纪末到20世纪初,这当中的二三十年说短不短说长也不长。对于中国,则是风云变化的几十年。在这当中,中国自二次鸦片战争后,又经历了洋务运动、甲午战争、戊戌变法、辛亥革命、二次革命等。其中,中国结束了清朝的统治,走向了民国;新思潮开始传来,旧制度渐渐走向衰退。千疮百孔的中国也正向着更光明的明天前进着。
      在这二三十年的历史河流中,留下了许多亦正亦邪的人物,慈禧太后(吕中 饰)、李鸿章(王冰 饰)、袁世凯(孙淳 饰)、孙中山(马少骅 饰)等他们被记载在历史课本里,和中国的历史相挂钩。借由这部剧,让我们再回顾一下那个时代,那个风起云涌变化万千的时代。前路虽然艰辛,但我们也正一步步向前迈进。



    General
    Unique ID                      : 102070856173809332828789052539310787953 (0x4CCA21BFF79F972F1BB7A1454AAD4D71)
    Complete name                  : E:The.Way.to.The.Republic.E21.DVDRip.x264.AC3.mkv
    Format                         : Matroska
    Format version                 : Version 4 / Version 2
    File size                      : 456 MiB
    Duration                       : 43 min 54 s
    Overall bit rate mode          : Variable
    Overall bit rate               : 1 451 kb/s
    Encoded date                   : UTC 2020-07-23 02:31:16
    Writing application            : mkvmerge v45.0.0 ('Heaven in Pennies') 64-bit
    Writing library                : libebml v1.3.10 + libmatroska v1.5.2

    Video
    ID                             : 1
    Format                         : AVC
    Format/Info                    : Advanced Video Codec
    Format profile                 : High@L4.2
    Format settings                : CABAC / 3 Ref Frames
    Format settings, CABAC         : Yes
    Format settings, ReFrames      : 3 frames
    Codec ID                       : V_MPEG4/ISO/AVC
    Duration                       : 43 min 54 s
    Bit rate mode                  : Variable
    Bit rate                       : 1 257 kb/s
    Maximum bit rate               : 5 000 kb/s
    Width                          : 720 pixels
    Height                         : 480 pixels
    Display aspect ratio           : 4:3
    Original display aspect ratio  : 4:3
    Frame rate mode                : Constant
    Frame rate                     : 29.970 (30000/1001) FPS
    Standard                       : NTSC
    Color space                    : YUV
    Chroma subsampling             : 4:2:0
    Bit depth                      : 8 bits
    Scan type                      : Progressive
    Bits/(Pixel*Frame)             : 0.121
    Stream size                    : 395 MiB (87%)
    Writing library                : x264 core 115
    Encoding settings              : cabac=1 / ref=3 / deblock=1:0:0 / analyse=0x3:0x113 / me=hex / subme=7 / psy=1 / psy_rd=1.00:0.00 / mixed_ref=1 / me_range=16 / chroma_me=1 / trellis=1 / 8x8dct=1 / cqm=2 / deadzone=21,11 / fast_pskip=1 / chroma_qp_offset=-2 / threads=6 / sliced_threads=0 / slices=1 / nr=0 / decimate=1 / interlaced=0 / bluray_compat=1 / constrained_intra=0 / bframes=3 / b_pyramid=0 / b_adapt=1 / b_bias=0 / direct=1 / weightb=1 / open_gop=0 / weightp=1 / keyint=250 / keyint_min=25 / scenecut=40 / intra_refresh=0 / rc_lookahead=40 / rc=crf / mbtree=1 / crf=21.0 / qcomp=0.60 / qpmin=3 / qpmax=69 / qpstep=4 / vbv_maxrate=5000 / vbv_bufsize=4997 / crf_max=51.0 / nal_hrd=vbr / ip_ratio=1.40 / aq=1:1.00
    Default                        : Yes
    Forced                         : No
    Color range                    : Limited
    Color primaries                : BT.601 NTSC
    Transfer characteristics       : BT.601
    Matrix coefficients            : BT.601

    Audio
    ID                             : 2
    Format                         : AC-3
    Format/Info                    : Audio Coding 3
    Codec ID                       : A_AC3
    Duration                       : 43 min 54 s
    Bit rate mode                  : Constant
    Bit rate                       : 192 kb/s
    Channel(s)                     : 2 channels
    Channel positions              : Front: L R
    Sampling rate                  : 48.0 kHz
    Frame rate                     : 31.250 FPS (1536 SPF)
    Bit depth                      : 16 bits
    Compression mode               : Lossy
    Delay relative to video        : 13 ms
    Stream size                    : 60.3 MiB (13%)
    Title                          : Stereo
    Language                       : Chinese
    Service kind                   : Complete Main
    Default                        : Yes
    Forced                         : No

    Text
    ID                             : 3
    Format                         : VobSub
    Muxing mode                    : zlib
    Codec ID                       : S_VOBSUB
    Codec ID/Info                  : Picture based subtitle format used on DVDs
    Duration                       : 2 s 867 ms
    Bit rate                       : 6 088 b/s
    Count of elements              : 1
    Stream size                    : 2.13 KiB (0%)
    Language                       : Chinese
    Default                        : Yes
    Forced                         : No

    Menu
    00:02:07.087                   : en:Chapter 01
    00:16:43.963                   : en:Chapter 02
    00:31:57.876                   : en:Chapter 03


    购买主题 已有 2 人购买  本主题需向作者支付 20 大洋 才能浏览
    回复

    使用道具 举报

  • TA的每日心情
    开心
    2 小时前
  • 签到天数: 143 天

    [LV.7]常住居民III

    0

    主题

    1329

    帖子

    156

    积分

    高级影迷

    Rank: 4

    积分
    156
    发表于 2020-7-30 10:52:32 | 显示全部楼层
    多谢分享!
    回复

    使用道具 举报

  • TA的每日心情
    开心
    15 小时前
  • 签到天数: 395 天

    [LV.9]以坛为家II

    9

    主题

    772

    帖子

    94

    积分

    中级影迷

    Rank: 3Rank: 3

    积分
    94
    发表于 2020-7-30 11:54:39 | 显示全部楼层
    支持一下,谢谢分享!
    回复

    使用道具 举报

  • TA的每日心情

    20 小时前
  • 签到天数: 39 天

    [LV.5]常住居民I

    0

    主题

    326

    帖子

    90

    积分

    中级影迷

    Rank: 3Rank: 3

    积分
    90
    发表于 2020-7-30 12:16:59 | 显示全部楼层
    谢谢分享,再接再厉
    回复

    使用道具 举报

  • TA的每日心情
    郁闷
    2020-7-26 13:16
  • 签到天数: 13 天

    [LV.3]偶尔看看II

    1

    主题

    205

    帖子

    215

    积分

    高级影迷

    Rank: 4

    积分
    215
    发表于 2020-7-30 12:40:53 | 显示全部楼层
    感谢楼主分享
    回复

    使用道具 举报

  • TA的每日心情

    20 小时前
  • 签到天数: 39 天

    [LV.5]常住居民I

    0

    主题

    326

    帖子

    90

    积分

    中级影迷

    Rank: 3Rank: 3

    积分
    90
    发表于 2020-7-31 00:26:32 | 显示全部楼层
    谢谢楼主分享
    回复

    使用道具 举报

  • TA的每日心情

    20 小时前
  • 签到天数: 55 天

    [LV.5]常住居民I

    1

    主题

    574

    帖子

    75

    积分

    中级影迷

    Rank: 3Rank: 3

    积分
    75
    发表于 2020-7-31 00:34:50 | 显示全部楼层
    非常好的历史剧
    回复

    使用道具 举报

  • TA的每日心情

    11 小时前
  • 签到天数: 22 天

    [LV.4]偶尔看看III

    2

    主题

    310

    帖子

    25

    积分

    初级影迷

    Rank: 2

    积分
    25
    发表于 2020-7-31 09:18:05 | 显示全部楼层
    感谢楼主分享
    回复

    使用道具 举报

  • TA的每日心情

    11 小时前
  • 签到天数: 467 天

    [LV.9]以坛为家II

    37

    主题

    5313

    帖子

    646

    积分

    专业影迷

    Rank: 8Rank: 8

    积分
    646
    发表于 2020-8-1 00:10:19 | 显示全部楼层
    很喜欢的片片,谢谢分享。
    回复

    使用道具 举报

    您需要登录后才可以回帖 登录 | 立即注册

    本版积分规则

    QQ|Archiver|手机版|小黑屋|影迷乐园  

    GMT+8, 2020-8-12 20:21 , Processed in 0.181127 second(s), 31 queries .

    Powered by Discuz! X3.3

    © 2001-2017 Comsenz Inc.

    快速回复 返回顶部 返回列表