请选择 进入手机版 | 继续访问电脑版

YMLY-影迷乐园-特效字幕 蓝光原盘 1080P 高清动漫电影电视剧

 找回密码
 立即注册
搜索
查看: 55|回复: 7

[大陆] [百度][1992][唐明皇][国语无字][40集全][MKV][23GB][576p.TVRip.X264.AAC]

[复制链接]
  • TA的每日心情

    2020-7-26 08:14
  • 签到天数: 50 天

    [LV.5]常住居民I

    26

    主题

    152

    帖子

    211

    积分

    高级影迷

    Rank: 4

    积分
    211
    发表于 2020-7-30 10:07:05 | 显示全部楼层 |阅读模式

    自压资源,稍微加了一点亮度,做了反交错。



    ◎译  名 
    ◎片  名 唐明皇
    ◎年  代 1992
    ◎产  地 中国内地
    ◎类  别 剧情 / 传记 / 历史
    ◎语  言 汉语普通话
    ◎上映日期 1992(中国内地)
    ◎IMDb链接  https://www.imdb.com/title/tt3823034
    ◎豆瓣评分 7.6/10 from 3559 users
    ◎豆瓣链接 https://movie.douban.com/subject/2154384/
    ◎集  数 40
    ◎片  长 47分钟
    ◎导  演 陈家林 Jialin Chen
    ◎编  剧 张弦 Xian Zhang / 叶楠 Nan Ye / 曹惠 Hui Cao / 刘臣中 Chenzhong Liu
    ◎主  演 刘威 Wei Liu
           林芳兵 Fangbing Lin
           李如平 Ruping Li
           黄小雷 Xiaolei Huang
           严敏裘 Minqiu Yan
           周洁 Jie Zhou
           李建群 Jianqun Li
           郑榕 Rong Zhen
           李迎秋 Yingqiu Li
           陈颖 Yin Chen
           李静莉 Jingli Li
           颜彼得 Bide Yan


    ◎标  签 电视剧 | 国产电视剧 | 历史 | 古装 | 唐明皇 | 大陆 | 刘威 | 中国

    ◎简  介  

      公元710年,李亘的三子李隆基(刘威 饰)发动政变帮助他取得了皇位,事隔两年之后父亲把王位禅让给了儿子。李隆基登上皇位成了唐玄宗,大唐又迎来了盛世的发展。若干年后平静被皇子李瑁(黄小雷 饰)的妃子杨玉环(林芳兵 饰)打破,李隆基看上了她,在亲信宦官高力士(李如平 饰)的帮助下,他不顾一切得到了佳人,杨玉环从此成为了杨贵妃。尽管已经有了武惠妃(李建群 饰)、王皇后(李静莉 饰)、赵丽妃(周洁 饰),但是唐玄宗最爱的还是杨贵妃,甚至把杨玉环的堂兄杨国忠(高兰村 饰)变成了丞相,两人一起度过了好些年快乐的生活,直至安禄山(颜彼得 饰)的叛乱出现。最终杨玉环还是成了政治的牺牲品,惨死在马嵬坡,而命运对唐玄宗的眷顾就此为止。



    General
    Unique ID                      : 26814473939862107912089285057801905353 (0x142C47A2F6AE55F69BB954C9312864C9)
    Complete name                  : E:唐明皇.E07.TVRip.x264.AAC.mkv
    Format                         : Matroska
    Format version                 : Version 4 / Version 2
    File size                      : 516 MiB
    Duration                       : 42 min 27 s
    Overall bit rate mode          : Variable
    Overall bit rate               : 1 699 kb/s
    Encoded date                   : UTC 2020-07-21 01:18:01
    Writing application            : mkvmerge v45.0.0 ('Heaven in Pennies') 64-bit
    Writing library                : libebml v1.3.10 + libmatroska v1.5.2

    Video
    ID                             : 1
    Format                         : AVC
    Format/Info                    : Advanced Video Codec
    Format profile                 : High@L4.1
    Format settings                : CABAC / 3 Ref Frames
    Format settings, CABAC         : Yes
    Format settings, ReFrames      : 3 frames
    Codec ID                       : V_MPEG4/ISO/AVC
    Duration                       : 42 min 27 s
    Bit rate mode                  : Variable
    Bit rate                       : 1 505 kb/s
    Maximum bit rate               : 5 000 kb/s
    Width                          : 720 pixels
    Height                         : 576 pixels
    Display aspect ratio           : 4:3
    Original display aspect ratio  : 4:3
    Frame rate mode                : Constant
    Frame rate                     : 25.000 FPS
    Standard                       : NTSC
    Color space                    : YUV
    Chroma subsampling             : 4:2:0
    Bit depth                      : 8 bits
    Scan type                      : Progressive
    Bits/(Pixel*Frame)             : 0.145
    Stream size                    : 457 MiB (89%)
    Writing library                : x264 core 115
    Encoding settings              : cabac=1 / ref=3 / deblock=1:0:0 / analyse=0x3:0x113 / me=hex / subme=7 / psy=1 / psy_rd=1.00:0.00 / mixed_ref=1 / me_range=16 / chroma_me=1 / trellis=1 / 8x8dct=1 / cqm=2 / deadzone=21,11 / fast_pskip=1 / chroma_qp_offset=-2 / threads=6 / sliced_threads=0 / slices=1 / nr=0 / decimate=1 / interlaced=0 / bluray_compat=1 / constrained_intra=0 / bframes=3 / b_pyramid=0 / b_adapt=1 / b_bias=0 / direct=1 / weightb=1 / open_gop=0 / weightp=1 / keyint=250 / keyint_min=25 / scenecut=40 / intra_refresh=0 / rc_lookahead=40 / rc=crf / mbtree=1 / crf=21.0 / qcomp=0.60 / qpmin=3 / qpmax=69 / qpstep=4 / vbv_maxrate=5000 / vbv_bufsize=4997 / crf_max=51.0 / nal_hrd=vbr / ip_ratio=1.40 / aq=1:1.00
    Default                        : Yes
    Forced                         : No
    Color range                    : Limited
    Color primaries                : BT.601 PAL
    Transfer characteristics       : BT.470 System B, BT.470 System G
    Matrix coefficients            : BT.470 System B, BT.470 System G

    Audio
    ID                             : 2
    Format                         : AAC
    Format/Info                    : Advanced Audio Codec
    Format profile                 : LC
    Codec ID                       : A_AAC-2
    Duration                       : 42 min 27 s
    Bit rate                       : 192 kb/s
    Channel(s)                     : 2 channels
    Channel positions              : Front: L R
    Sampling rate                  : 48.0 kHz
    Frame rate                     : 46.875 FPS (1024 SPF)
    Compression mode               : Lossy
    Delay relative to video        : 9 ms
    Stream size                    : 58.3 MiB (11%)
    Language                       : Chinese
    Default                        : Yes
    Forced                         : No



    购买主题 本主题需向作者支付 20 大洋 才能浏览
    回复

    使用道具 举报

  • TA的每日心情
    开心
    3 小时前
  • 签到天数: 143 天

    [LV.7]常住居民III

    0

    主题

    1329

    帖子

    156

    积分

    高级影迷

    Rank: 4

    积分
    156
    发表于 2020-7-30 10:52:59 | 显示全部楼层
    多谢分享!
    回复

    使用道具 举报

  • TA的每日心情
    无聊
    8 小时前
  • 签到天数: 17 天

    [LV.4]偶尔看看III

    0

    主题

    37

    帖子

    35

    积分

    初级影迷

    Rank: 2

    积分
    35
    发表于 2020-7-30 14:00:32 | 显示全部楼层
    感谢楼主的分享
    回复

    使用道具 举报

  • TA的每日心情

    20 小时前
  • 签到天数: 39 天

    [LV.5]常住居民I

    0

    主题

    326

    帖子

    90

    积分

    中级影迷

    Rank: 3Rank: 3

    积分
    90
    发表于 2020-7-31 00:26:17 | 显示全部楼层
    谢谢楼主分享
    回复

    使用道具 举报

  • TA的每日心情

    20 小时前
  • 签到天数: 55 天

    [LV.5]常住居民I

    1

    主题

    574

    帖子

    75

    积分

    中级影迷

    Rank: 3Rank: 3

    积分
    75
    发表于 2020-7-31 00:35:10 | 显示全部楼层
    楼主辛苦了
    回复

    使用道具 举报

  • TA的每日心情

    13 小时前
  • 签到天数: 16 天

    [LV.4]偶尔看看III

    0

    主题

    123

    帖子

    45

    积分

    初级影迷

    Rank: 2

    积分
    45
    发表于 2020-7-31 07:53:26 | 显示全部楼层
    好早的电视剧了!
    回复

    使用道具 举报

  • TA的每日心情

    11 小时前
  • 签到天数: 22 天

    [LV.4]偶尔看看III

    2

    主题

    310

    帖子

    25

    积分

    初级影迷

    Rank: 2

    积分
    25
    发表于 2020-7-31 09:17:35 | 显示全部楼层
    感谢楼主分享
    回复

    使用道具 举报

  • TA的每日心情

    11 小时前
  • 签到天数: 467 天

    [LV.9]以坛为家II

    37

    主题

    5313

    帖子

    646

    积分

    专业影迷

    Rank: 8Rank: 8

    积分
    646
    发表于 2020-8-1 00:08:38 | 显示全部楼层
    很好的资源。感谢发布!
    回复

    使用道具 举报

    您需要登录后才可以回帖 登录 | 立即注册

    本版积分规则

    QQ|Archiver|手机版|小黑屋|影迷乐园  

    GMT+8, 2020-8-12 20:44 , Processed in 0.158716 second(s), 31 queries .

    Powered by Discuz! X3.3

    © 2001-2017 Comsenz Inc.

    快速回复 返回顶部 返回列表