请选择 进入手机版 | 继续访问电脑版

YMLY-影迷乐园-特效字幕 蓝光原盘 1080P 高清动漫电影电视剧

 找回密码
 立即注册
搜索
查看: 69|回复: 7

[韩国] [2019][你好妈妈,再见!][韩语内嵌多国字幕][全16集][MKV][43.7GB][Hi.Bye.Mama.E01.Life.is.Full.of.Unpredictable.Surprises.1080p.NF.WEB-DL.DDP2.0.x264-Ao]

[复制链接]
  • TA的每日心情
    奋斗
    19 小时前
  • 签到天数: 31 天

    [LV.5]常住居民I

    6

    主题

    104

    帖子

    79

    积分

    中级影迷

    Rank: 3Rank: 3

    积分
    79
    发表于 2020-7-30 13:39:46 | 显示全部楼层 |阅读模式


    ◎译  名 你好妈妈,再见! / Hi Bye, Mama! / 你好 再见,妈妈! / 再见妈妈 / 再见妈妈又再见 / 哈啰掰掰,我是鬼妈妈 / 하이바이,마마!
    ◎片  名 하이바이, 마마!
    ◎年  代 2020
    ◎产  地 韩国
    ◎类  别 剧情 / 奇幻
    ◎语  言 韩语
    ◎上映日期 2020-02-22(韩国)
    ◎IMDb评分  8.0/10 from 629 users
    ◎IMDb链接  https://www.imdb.com/title/tt11804034
    ◎豆瓣评分 8.3/10 from 21591 users
    ◎豆瓣链接 https://movie.douban.com/subject/34858567/
    ◎集  数 16
    ◎导  演 柳济元 Yoo Je Won
    ◎编  剧 权惠珠 Kwon Hye-joo
    ◎主  演 金泰熙 Tae-hee Kim
           李奎炯 Kyu-hyung Lee
           高甫洁 Go Bo-gyeol
           申东美 Dong-Mi Shin
           金美京 Mi-kyung Kim
           安内相 Nae-sang Ahn
           潘孝贞 Hyo-jung Ban
           吴义植 Eui-sik Oh
           裴海善 Hae-sun Bae


    ◎标  签 母爱 | 亲情 | 感动 | 温情 | 韩国 | 家庭 | 2020 | 奇幻

    ◎简  介  

      该剧讲述世界上最暖心的离别故事。描写妈妈鬼神(女主)为了变成人类在49天里的真实转世计划,和妈妈鬼神经历了生离死别的痛苦并展开新的人生的丈夫(男主),以及回到两人的孩子(童演)描绘的上天和被留在人间的人们的故事。
      金泰熙将在剧中饰演车宥利,她性格乐天随和热心,她主攻玻璃工艺,经营着一个小作坊,婚后在坐月子的时候也没有放弃工作。去世的那天也是在去工作的途中遇到了交通事故。
      由《Go Back夫妇》权慧珠编剧执笔,预计接档《爱的迫降》播出。

    1. General
    2. Unique ID                      : 67089625654056700307442030559948353668 (0x3278FDED30BBF0FAC5753B166C02B084)
    3. Complete name                  : F:\新建文件夹 (2)\新建文件夹\Hi.Bye.Mama.E01.Life.is.Full.of.Unpredictable.Surprises.1080p.NF.WEB-DL.DDP2.0.x264-FelicityForNow.mkv
    4. Format                         : Matroska
    5. Format version                 : Version 4
    6. File size                      : 3.07 GiB
    7. Duration                       : 1 h 14 min
    8. Overall bit rate mode          : Variable
    9. Overall bit rate               : 5 925 kb/s
    10. Encoded date                   : UTC 2020-04-20 04:53:25
    11. Writing application            : mkvmerge v35.0.0 ('All The Love In The World') 64-bit
    12. Writing library                : libebml v1.3.9 + libmatroska v1.5.2

    13. Video
    14. ID                             : 1
    15. Format                         : AVC
    16. Format/Info                    : Advanced Video Codec
    17. Format profile                 : Main@L4
    18. Format settings                : CABAC / 3 Ref Frames
    19. Format settings, CABAC         : Yes
    20. Format settings, Reference fra : 3 frames
    21. Codec ID                       : V_MPEG4/ISO/AVC
    22. Duration                       : 1 h 14 min
    23. Bit rate mode                  : Variable
    24. Bit rate                       : 5 800 kb/s
    25. Maximum bit rate               : 8 700 kb/s
    26. Width                          : 1 920 pixels
    27. Height                         : 1 080 pixels
    28. Display aspect ratio           : 16:9
    29. Frame rate mode                : Constant
    30. Frame rate                     : 23.976 (24000/1001) FPS
    31. Color space                    : YUV
    32. Chroma subsampling             : 4:2:0
    33. Bit depth                      : 8 bits
    34. Scan type                      : Progressive
    35. Bits/(Pixel*Frame)             : 0.117
    36. Stream size                    : 3.00 GiB (98%)
    37. Writing library                : x264 core 148 r2717 0d2410d
    38. Encoding settings              : cabac=1 / ref=3 / deblock=1:0:0 / analyse=0x1:0x111 / me=umh / subme=10 / psy=1 / psy_rd=1.00:0.00 / mixed_ref=1 / me_range=24 / chroma_me=1 / trellis=2 / 8x8dct=0 / cqm=0 / deadzone=21,11 / fast_pskip=1 / chroma_qp_offset=-2 / threads=6 / lookahead_threads=1 / sliced_threads=0 / nr=0 / decimate=1 / interlaced=0 / bluray_compat=0 / stitchable=1 / constrained_intra=0 / bframes=2 / b_pyramid=0 / b_adapt=2 / b_bias=0 / direct=3 / weightb=1 / open_gop=0 / weightp=2 / keyint=250 / keyint_min=23 / scenecut=0 / intra_refresh=0 / rc_lookahead=48 / rc=2pass / mbtree=1 / bitrate=5800 / ratetol=1.0 / qcomp=0.50 / qpmin=6 / qpmax=51 / qpstep=4 / cplxblur=20.0 / qblur=0.5 / vbv_maxrate=8700 / vbv_bufsize=11600 / nal_hrd=vbr / filler=0 / ip_ratio=1.40 / aq=1:1.00
    39. Default                        : Yes
    40. Forced                         : No

    41. Audio
    42. ID                             : 2
    43. Format                         : E-AC-3
    44. Format/Info                    : Enhanced AC-3
    45. Commercial name                : Dolby Digital Plus
    46. Codec ID                       : A_EAC3
    47. Duration                       : 1 h 14 min
    48. Bit rate mode                  : Constant
    49. Bit rate                       : 128 kb/s
    50. Channel(s)                     : 2 channels
    51. Channel layout                 : L R
    52. Sampling rate                  : 48.0 kHz
    53. Frame rate                     : 31.250 FPS (1536 SPF)
    54. Compression mode               : Lossy
    55. Stream size                    : 67.9 MiB (2%)
    56. Language                       : Korean
    57. Service kind                   : Complete Main
    58. Default                        : Yes
    59. Forced                         : No

    60. Text #1
    61. ID                             : 3
    62. Format                         : UTF-8
    63. Codec ID                       : S_TEXT/UTF8
    64. Codec ID/Info                  : UTF-8 Plain Text
    65. Duration                       : 1 h 13 min
    66. Bit rate                       : 49 b/s
    67. Count of elements              : 805
    68. Stream size                    : 26.6 KiB (0%)
    69. Language                       : English
    70. Default                        : Yes
    71. Forced                         : No

    72. Text #2
    73. ID                             : 4
    74. Format                         : UTF-8
    75. Codec ID                       : S_TEXT/UTF8
    76. Codec ID/Info                  : UTF-8 Plain Text
    77. Duration                       : 1 h 13 min
    78. Bit rate                       : 81 b/s
    79. Count of elements              : 1115
    80. Stream size                    : 43.9 KiB (0%)
    81. Title                          : SDH
    82. Language                       : Korean
    83. Default                        : No
    84. Forced                         : No

    85. Text #3
    86. ID                             : 5
    87. Format                         : UTF-8
    88. Codec ID                       : S_TEXT/UTF8
    89. Codec ID/Info                  : UTF-8 Plain Text
    90. Duration                       : 1 h 13 min
    91. Bit rate                       : 77 b/s
    92. Count of elements              : 840
    93. Stream size                    : 41.8 KiB (0%)
    94. Language                       : Arabic
    95. Default                        : No
    96. Forced                         : No

    97. Text #4
    98. ID                             : 6
    99. Format                         : UTF-8
    100. Codec ID                       : S_TEXT/UTF8
    101. Codec ID/Info                  : UTF-8 Plain Text
    102. Duration                       : 1 h 13 min
    103. Bit rate                       : 45 b/s
    104. Count of elements              : 839
    105. Stream size                    : 24.5 KiB (0%)
    106. Language                       : Czech
    107. Default                        : No
    108. Forced                         : No

    109. Text #5
    110. ID                             : 7
    111. Format                         : UTF-8
    112. Codec ID                       : S_TEXT/UTF8
    113. Codec ID/Info                  : UTF-8 Plain Text
    114. Duration                       : 1 h 13 min
    115. Bit rate                       : 42 b/s
    116. Count of elements              : 837
    117. Stream size                    : 22.9 KiB (0%)
    118. Language                       : Danish
    119. Default                        : No
    120. Forced                         : No

    121. Text #6
    122. ID                             : 8
    123. Format                         : UTF-8
    124. Codec ID                       : S_TEXT/UTF8
    125. Codec ID/Info                  : UTF-8 Plain Text
    126. Duration                       : 1 h 13 min
    127. Bit rate                       : 49 b/s
    128. Count of elements              : 839
    129. Stream size                    : 26.6 KiB (0%)
    130. Language                       : German
    131. Default                        : No
    132. Forced                         : No

    133. Text #7
    134. ID                             : 9
    135. Format                         : UTF-8
    136. Codec ID                       : S_TEXT/UTF8
    137. Codec ID/Info                  : UTF-8 Plain Text
    138. Duration                       : 1 h 13 min
    139. Bit rate                       : 79 b/s
    140. Count of elements              : 839
    141. Stream size                    : 42.8 KiB (0%)
    142. Language                       : Greek
    143. Default                        : No
    144. Forced                         : No

    145. Text #8
    146. ID                             : 10
    147. Format                         : UTF-8
    148. Codec ID                       : S_TEXT/UTF8
    149. Codec ID/Info                  : UTF-8 Plain Text
    150. Duration                       : 1 h 13 min
    151. Bit rate                       : 46 b/s
    152. Count of elements              : 810
    153. Stream size                    : 24.9 KiB (0%)
    154. Title                          : Latin American
    155. Language                       : Spanish
    156. Default                        : No
    157. Forced                         : No

    158. Text #9
    159. ID                             : 11
    160. Format                         : UTF-8
    161. Codec ID                       : S_TEXT/UTF8
    162. Codec ID/Info                  : UTF-8 Plain Text
    163. Duration                       : 1 h 13 min
    164. Bit rate                       : 46 b/s
    165. Count of elements              : 839
    166. Stream size                    : 25.3 KiB (0%)
    167. Title                          : European
    168. Language                       : Spanish
    169. Default                        : No
    170. Forced                         : No

    171. Text #10
    172. ID                             : 12
    173. Format                         : UTF-8
    174. Codec ID                       : S_TEXT/UTF8
    175. Codec ID/Info                  : UTF-8 Plain Text
    176. Duration                       : 1 h 13 min
    177. Bit rate                       : 47 b/s
    178. Count of elements              : 840
    179. Stream size                    : 25.9 KiB (0%)
    180. Language                       : Finnish
    181. Default                        : No
    182. Forced                         : No

    183. Text #11
    184. ID                             : 13
    185. Format                         : UTF-8
    186. Codec ID                       : S_TEXT/UTF8
    187. Codec ID/Info                  : UTF-8 Plain Text
    188. Duration                       : 1 h 13 min
    189. Bit rate                       : 48 b/s
    190. Count of elements              : 829
    191. Stream size                    : 26.2 KiB (0%)
    192. Language                       : French
    193. Default                        : No
    194. Forced                         : No

    195. Text #12
    196. ID                             : 14
    197. Format                         : UTF-8
    198. Codec ID                       : S_TEXT/UTF8
    199. Codec ID/Info                  : UTF-8 Plain Text
    200. Duration                       : 1 h 13 min
    201. Bit rate                       : 72 b/s
    202. Count of elements              : 839
    203. Stream size                    : 39.2 KiB (0%)
    204. Language                       : Hebrew
    205. Default                        : No
    206. Forced                         : No

    207. Text #13
    208. ID                             : 15
    209. Format                         : UTF-8
    210. Codec ID                       : S_TEXT/UTF8
    211. Codec ID/Info                  : UTF-8 Plain Text
    212. Duration                       : 1 h 13 min
    213. Bit rate                       : 44 b/s
    214. Count of elements              : 838
    215. Stream size                    : 24.3 KiB (0%)
    216. Language                       : Hungarian
    217. Default                        : No
    218. Forced                         : No

    219. Text #14
    220. ID                             : 16
    221. Format                         : UTF-8
    222. Codec ID                       : S_TEXT/UTF8
    223. Codec ID/Info                  : UTF-8 Plain Text
    224. Duration                       : 1 h 13 min
    225. Bit rate                       : 44 b/s
    226. Count of elements              : 840
    227. Stream size                    : 24.0 KiB (0%)
    228. Language                       : Indonesian
    229. Default                        : No
    230. Forced                         : No

    231. Text #15
    232. ID                             : 17
    233. Format                         : UTF-8
    234. Codec ID                       : S_TEXT/UTF8
    235. Codec ID/Info                  : UTF-8 Plain Text
    236. Duration                       : 1 h 13 min
    237. Bit rate                       : 48 b/s
    238. Count of elements              : 839
    239. Stream size                    : 26.4 KiB (0%)
    240. Language                       : Italian
    241. Default                        : No
    242. Forced                         : No

    243. Text #16
    244. ID                             : 18
    245. Format                         : UTF-8
    246. Codec ID                       : S_TEXT/UTF8
    247. Codec ID/Info                  : UTF-8 Plain Text
    248. Duration                       : 1 h 13 min
    249. Bit rate                       : 40 b/s
    250. Count of elements              : 787
    251. Stream size                    : 22.1 KiB (0%)
    252. Language                       : Japanese
    253. Default                        : No
    254. Forced                         : No

    255. Text #17
    256. ID                             : 19
    257. Format                         : UTF-8
    258. Codec ID                       : S_TEXT/UTF8
    259. Codec ID/Info                  : UTF-8 Plain Text
    260. Duration                       : 1 h 13 min
    261. Bit rate                       : 0 b/s
    262. Count of elements              : 6
    263. Stream size                    : 144 Bytes (0%)
    264. Title                          : Forced
    265. Language                       : Korean
    266. Default                        : No
    267. Forced                         : No

    268. Text #18
    269. ID                             : 20
    270. Format                         : UTF-8
    271. Codec ID                       : S_TEXT/UTF8
    272. Codec ID/Info                  : UTF-8 Plain Text
    273. Duration                       : 1 h 13 min
    274. Bit rate                       : 47 b/s
    275. Count of elements              : 840
    276. Stream size                    : 25.5 KiB (0%)
    277. Language                       : Norwegian Bokmal
    278. Default                        : No
    279. Forced                         : No

    280. Text #19
    281. ID                             : 21
    282. Format                         : UTF-8
    283. Codec ID                       : S_TEXT/UTF8
    284. Codec ID/Info                  : UTF-8 Plain Text
    285. Duration                       : 1 h 13 min
    286. Bit rate                       : 40 b/s
    287. Count of elements              : 839
    288. Stream size                    : 21.9 KiB (0%)
    289. Language                       : Dutch
    290. Default                        : No
    291. Forced                         : No

    292. Text #20
    293. ID                             : 22
    294. Format                         : UTF-8
    295. Codec ID                       : S_TEXT/UTF8
    296. Codec ID/Info                  : UTF-8 Plain Text
    297. Duration                       : 1 h 13 min
    298. Bit rate                       : 43 b/s
    299. Count of elements              : 839
    300. Stream size                    : 23.3 KiB (0%)
    301. Language                       : Polish
    302. Default                        : No
    303. Forced                         : No

    304. Text #21
    305. ID                             : 23
    306. Format                         : UTF-8
    307. Codec ID                       : S_TEXT/UTF8
    308. Codec ID/Info                  : UTF-8 Plain Text
    309. Duration                       : 1 h 13 min
    310. Bit rate                       : 45 b/s
    311. Count of elements              : 838
    312. Stream size                    : 24.5 KiB (0%)
    313. Title                          : European
    314. Language                       : Portuguese
    315. Default                        : No
    316. Forced                         : No

    317. Text #22
    318. ID                             : 24
    319. Format                         : UTF-8
    320. Codec ID                       : S_TEXT/UTF8
    321. Codec ID/Info                  : UTF-8 Plain Text
    322. Duration                       : 1 h 13 min
    323. Bit rate                       : 45 b/s
    324. Count of elements              : 832
    325. Stream size                    : 24.5 KiB (0%)
    326. Title                          : Brazilian
    327. Language                       : Portuguese
    328. Default                        : No
    329. Forced                         : No

    330. Text #23
    331. ID                             : 25
    332. Format                         : UTF-8
    333. Codec ID                       : S_TEXT/UTF8
    334. Codec ID/Info                  : UTF-8 Plain Text
    335. Duration                       : 1 h 13 min
    336. Bit rate                       : 54 b/s
    337. Count of elements              : 839
    338. Stream size                    : 29.3 KiB (0%)
    339. Language                       : Romanian
    340. Default                        : No
    341. Forced                         : No

    342. Text #24
    343. ID                             : 26
    344. Format                         : UTF-8
    345. Codec ID                       : S_TEXT/UTF8
    346. Codec ID/Info                  : UTF-8 Plain Text
    347. Duration                       : 1 h 13 min
    348. Bit rate                       : 70 b/s
    349. Count of elements              : 840
    350. Stream size                    : 38.1 KiB (0%)
    351. Language                       : Russian
    352. Default                        : No
    353. Forced                         : No

    354. Text #25
    355. ID                             : 27
    356. Format                         : UTF-8
    357. Codec ID                       : S_TEXT/UTF8
    358. Codec ID/Info                  : UTF-8 Plain Text
    359. Duration                       : 1 h 13 min
    360. Bit rate                       : 42 b/s
    361. Count of elements              : 840
    362. Stream size                    : 23.2 KiB (0%)
    363. Language                       : Swedish
    364. Default                        : No
    365. Forced                         : No

    366. Text #26
    367. ID                             : 28
    368. Format                         : UTF-8
    369. Codec ID                       : S_TEXT/UTF8
    370. Codec ID/Info                  : UTF-8 Plain Text
    371. Duration                       : 1 h 13 min
    372. Bit rate                       : 105 b/s
    373. Count of elements              : 828
    374. Stream size                    : 57.0 KiB (0%)
    375. Language                       : Thai
    376. Default                        : No
    377. Forced                         : No

    378. Text #27
    379. ID                             : 29
    380. Format                         : UTF-8
    381. Codec ID                       : S_TEXT/UTF8
    382. Codec ID/Info                  : UTF-8 Plain Text
    383. Duration                       : 1 h 13 min
    384. Bit rate                       : 46 b/s
    385. Count of elements              : 839
    386. Stream size                    : 25.3 KiB (0%)
    387. Language                       : Turkish
    388. Default                        : No
    389. Forced                         : No

    390. Text #28
    391. ID                             : 30
    392. Format                         : UTF-8
    393. Codec ID                       : S_TEXT/UTF8
    394. Codec ID/Info                  : UTF-8 Plain Text
    395. Duration                       : 1 h 13 min
    396. Bit rate                       : 65 b/s
    397. Count of elements              : 839
    398. Stream size                    : 35.5 KiB (0%)
    399. Language                       : Vietnamese
    400. Default                        : No
    401. Forced                         : No

    402. Text #29
    403. ID                             : 31
    404. Format                         : UTF-8
    405. Codec ID                       : S_TEXT/UTF8
    406. Codec ID/Info                  : UTF-8 Plain Text
    407. Duration                       : 1 h 13 min
    408. Bit rate                       : 46 b/s
    409. Count of elements              : 842
    410. Stream size                    : 24.9 KiB (0%)
    411. Title                          : Simplified
    412. Language                       : Chinese
    413. Default                        : No
    414. Forced                         : No

    415. Text #30
    416. ID                             : 32
    417. Format                         : UTF-8
    418. Codec ID                       : S_TEXT/UTF8
    419. Codec ID/Info                  : UTF-8 Plain Text
    420. Duration                       : 1 h 13 min
    421. Bit rate                       : 48 b/s
    422. Count of elements              : 840
    423. Stream size                    : 26.5 KiB (0%)
    424. Title                          : Traditional
    425. Language                       : Chinese
    426. Default                        : No
    427. Forced                         : No

    复制代码





    购买主题 本主题需向作者支付 50 大洋 才能浏览
    回复

    使用道具 举报

  • TA的每日心情
    奋斗
    2020-5-29 07:31
  • 签到天数: 25 天

    [LV.4]偶尔看看III

    6

    主题

    2306

    帖子

    133

    积分

    ★★VIP6★★

    Rank: 22Rank: 22Rank: 22Rank: 22Rank: 22Rank: 22

    积分
    133
    发表于 2020-7-30 18:05:54 | 显示全部楼层
    应该是内挂多国字幕
    回复

    使用道具 举报

  • TA的每日心情

    20 小时前
  • 签到天数: 39 天

    [LV.5]常住居民I

    0

    主题

    326

    帖子

    90

    积分

    中级影迷

    Rank: 3Rank: 3

    积分
    90
    发表于 2020-7-31 00:25:57 | 显示全部楼层
    谢谢楼主分享
    回复

    使用道具 举报

  • TA的每日心情

    20 小时前
  • 签到天数: 55 天

    [LV.5]常住居民I

    1

    主题

    574

    帖子

    75

    积分

    中级影迷

    Rank: 3Rank: 3

    积分
    75
    发表于 2020-7-31 00:35:29 | 显示全部楼层
    啥都没有的吗
    回复

    使用道具 举报

  • TA的每日心情

    10 小时前
  • 签到天数: 22 天

    [LV.4]偶尔看看III

    2

    主题

    310

    帖子

    25

    积分

    初级影迷

    Rank: 2

    积分
    25
    发表于 2020-7-31 09:17:06 | 显示全部楼层
    全部隐藏...
    回复

    使用道具 举报

  • TA的每日心情

    10 小时前
  • 签到天数: 467 天

    [LV.9]以坛为家II

    37

    主题

    5313

    帖子

    646

    积分

    专业影迷

    Rank: 8Rank: 8

    积分
    646
    发表于 2020-8-1 00:07:39 | 显示全部楼层
    很不错!谢谢分享。
    回复

    使用道具 举报

  • TA的每日心情
    奋斗
    19 小时前
  • 签到天数: 31 天

    [LV.5]常住居民I

    6

    主题

    104

    帖子

    79

    积分

    中级影迷

    Rank: 3Rank: 3

    积分
    79
     楼主| 发表于 2020-8-1 08:48:34 | 显示全部楼层
    前面没设置对 都隐藏了
    回复

    使用道具 举报

  • TA的每日心情

    20 小时前
  • 签到天数: 39 天

    [LV.5]常住居民I

    0

    主题

    326

    帖子

    90

    积分

    中级影迷

    Rank: 3Rank: 3

    积分
    90
    发表于 2020-8-1 09:03:07 | 显示全部楼层
    谢谢楼主分享
    回复

    使用道具 举报

    您需要登录后才可以回帖 登录 | 立即注册

    本版积分规则

    QQ|Archiver|手机版|小黑屋|影迷乐园  

    GMT+8, 2020-8-12 20:07 , Processed in 0.166940 second(s), 34 queries .

    Powered by Discuz! X3.3

    © 2001-2017 Comsenz Inc.

    快速回复 返回顶部 返回列表