请选择 进入手机版 | 继续访问电脑版

YMLY-影迷乐园-特效字幕 蓝光原盘 1080P 高清动漫电影电视剧

 找回密码
 立即注册
搜索
查看: 65|回复: 7

[美国] [百度][2000][1080P][消消气.S01][英语外挂简体中字][MKV][29.05GB][Curb.Your.Enthusiasm.Complete.S01.1080p.AMZN.WEB-DL.DD+2.0.H264-AJP69]

[复制链接]
  • TA的每日心情
    慵懒
    11 小时前
  • 签到天数: 396 天

    [LV.9]以坛为家II

    541

    主题

    1091

    帖子

    4599

    积分

    超级版主

    Rank: 16Rank: 16Rank: 16Rank: 16

    积分
    4599

    超版勋章版主勋章优秀版主土豪勋章小土豪勋章主题达人百分百好孩子最佳新人影迷男神

    发表于 2020-7-30 16:23:34 | 显示全部楼层 |阅读模式
    字幕为官方译本,已修改了字体。


    ◎译  名 消消气 第一季 / 处女座人生 / 抑制热情 / 龟毛人生
    ◎片  名 Curb Your Enthusiasm Season 1
    ◎年  代 2000
    ◎产  地 美国
    ◎类  别 喜剧
    ◎语  言 英语
    ◎上映日期 2000-10-15(美国)
    ◎IMDb评分  8.7/10 from 97874 users
    ◎IMDb链接  https://www.imdb.com/title/tt0264235
    ◎豆瓣评分 8.8/10 from 982 users
    ◎豆瓣链接 https://movie.douban.com/subject/1428366/
    ◎集  数 10
    ◎片  长 30分钟
    ◎导  演 拉里·戴维 Larry David
    ◎编  剧 拉里·戴维 Larry David
    ◎主  演 拉里·戴维 Larry David
           杰夫·格尔林 Jeff Garlin
           切瑞·海恩斯 Cheryl Hines
           Susie Essman


    ◎标  签 美剧 | 喜剧 | HBO | 美国 | LarryDavid | 电视剧 | comedy | 2000

    ◎简  介  

      这部剧集是上世纪九十年代最流行的情景喜剧《Seinfeld》的主创之一拉里·大卫(Larry David)自编自演,根据他在洛杉矶影艺圈的生活创造的喜剧。他把《Seinfeld》的风格推向极端化。HBO因是有线电视所以不需要很大的观众圈,所以HBO上的剧集常常风格独具。《抑制热情》显得特别生活化,很是写意,有很多现场发挥,刚开始播时观众圈不大,之后开始名声见长。拉里·大卫凭此剧获艾美奖2000年度喜剧类剧集最佳男主角提名。
      
      本剧是根据拉里-大卫当初在洛杉矶演艺圈的亲身经历改变而成,并由大卫自编自演而成的喜剧。把《Seinfeld》的风格推向了极端化。通过《抑制热情》让观众看到了大卫的正直、大方和谦虚,这位创作大师通过HBO带给观众无数的欢笑。而剧情游弋在真实与虚构之间,大卫和演员们把真实的洛杉矶生活呈现在银幕上,就仿佛有一架摄影机,随时把那真实的经历实况转播给观众一样。更重要的是,本剧本身是没有剧本的,往往依靠演员们的即兴表演赋予演出进度和新鲜感。而这造就了本剧的变幻莫测和与众不同。

    ◎获奖情况  

      第60届金球奖(2003)
      电视类 音乐/喜剧类剧集最佳男主角(提名) 拉里·戴维

    1. General
    2. Unique ID                      : 239774419778307925110834760869706724772 (0xB462DF9D5CCF8B2EB216B061CF5BF5A4)
    3. Complete name                  : E:\影视\消消气\S01\Curb.Your.Enthusiasm.S01E01.The.Pants.Tent.1080p.AMZN.WEB-DL.DD+2.0.H.264-AJP69.mkv
    4. Format                         : Matroska
    5. Format version                 : Version 4
    6. File size                      : 2.91 GiB
    7. Duration                       : 28 min 50 s
    8. Overall bit rate mode          : Variable
    9. Overall bit rate               : 14.4 Mb/s
    10. Encoded date                   : UTC 2017-07-27 13:27:09
    11. Writing application            : mkvmerge v13.0.0 ('The Juggler') 64bit
    12. Writing library                : libebml v1.3.4 + libmatroska v1.4.5

    13. Video
    14. ID                             : 1
    15. Format                         : AVC
    16. Format/Info                    : Advanced Video Codec
    17. Format profile                 : High@L4
    18. Format settings                : CABAC / 4 Ref Frames
    19. Format settings, CABAC         : Yes
    20. Format settings, Reference fra : 4 frames
    21. Codec ID                       : V_MPEG4/ISO/AVC
    22. Duration                       : 28 min 50 s
    23. Bit rate mode                  : Variable
    24. Bit rate                       : 14.2 Mb/s
    25. Maximum bit rate               : 15.0 Mb/s
    26. Width                          : 1 920 pixels
    27. Height                         : 1 080 pixels
    28. Display aspect ratio           : 16:9
    29. Frame rate mode                : Constant
    30. Frame rate                     : 29.970 (30000/1001) FPS
    31. Color space                    : YUV
    32. Chroma subsampling             : 4:2:0
    33. Bit depth                      : 8 bits
    34. Scan type                      : Progressive
    35. Bits/(Pixel*Frame)             : 0.228
    36. Stream size                    : 2.86 GiB (98%)
    37. Default                        : Yes
    38. Forced                         : No
    39. Color range                    : Limited
    40. Color primaries                : BT.709
    41. Transfer characteristics       : BT.709
    42. Matrix coefficients            : BT.709

    43. Audio
    44. ID                             : 2
    45. Format                         : E-AC-3
    46. Format/Info                    : Enhanced AC-3
    47. Commercial name                : Dolby Digital Plus
    48. Codec ID                       : A_EAC3
    49. Duration                       : 28 min 50 s
    50. Bit rate mode                  : Constant
    51. Bit rate                       : 224 kb/s
    52. Channel(s)                     : 2 channels
    53. Channel layout                 : L R
    54. Sampling rate                  : 48.0 kHz
    55. Frame rate                     : 31.250 FPS (1536 SPF)
    56. Compression mode               : Lossy
    57. Stream size                    : 46.2 MiB (2%)
    58. Language                       : English
    59. Service kind                   : Complete Main
    60. Default                        : Yes
    61. Forced                         : No

    62. Text
    63. ID                             : 3
    64. Format                         : UTF-8
    65. Codec ID                       : S_TEXT/UTF8
    66. Codec ID/Info                  : UTF-8 Plain Text
    67. Duration                       : 27 min 53 s
    68. Bit rate                       : 117 b/s
    69. Count of elements              : 839
    70. Stream size                    : 24.1 KiB (0%)
    71. Language                       : English
    72. Default                        : No
    73. Forced                         : No

    74. Menu
    75. 00:00:00.000                   : en:Studio Logo
    76. 00:00:05.000                   : en:Title Sequence
    77. 00:00:12.000                   : en:Larry wants to go to the movies
    78. 00:02:54.000                   : en:Larry calls Jeff in the car
    79. 00:03:58.000                   : en:Larry has a run in at the movies
    80. 00:05:36.000                   : en:Richard wants to all go out after the movie
    81. 00:07:05.000                   : en:Larry tells Cheryl about the awkward night he had
    82. 00:09:46.000                   : en:Jeff asks Larry to apologize to his parents
    83. 00:12:48.000                   : en:Larry tells Jeff about Mama's Boy
    84. 00:13:07.000                   : en:Richard and Larry talk about what happened at the movies
    85. 00:16:48.000                   : en:Larry apologizes to Jeff's parents
    86. 00:19:11.000                   : en:Cheryl tries to clear the air
    87. 00:21:48.000                   : en:Cheryl and Larry arrive at Mama's Boy for dinner
    88. 00:25:05.000                   : en:Larry has an awkward dinner with Jeff and his family
    89. 00:27:45.000                   : en:End Credits

    复制代码





    购买主题 已有 1 人购买  本主题需向作者支付 20 大洋 才能浏览
    回复

    使用道具 举报

  • TA的每日心情

    20 小时前
  • 签到天数: 39 天

    [LV.5]常住居民I

    0

    主题

    326

    帖子

    90

    积分

    中级影迷

    Rank: 3Rank: 3

    积分
    90
    发表于 2020-7-31 00:25:39 | 显示全部楼层
    谢谢楼主分享
    回复

    使用道具 举报

  • TA的每日心情

    20 小时前
  • 签到天数: 55 天

    [LV.5]常住居民I

    1

    主题

    574

    帖子

    75

    积分

    中级影迷

    Rank: 3Rank: 3

    积分
    75
    发表于 2020-7-31 00:35:45 | 显示全部楼层
    谢谢楼主分享了
    回复

    使用道具 举报

  • TA的每日心情

    13 小时前
  • 签到天数: 16 天

    [LV.4]偶尔看看III

    0

    主题

    123

    帖子

    45

    积分

    初级影迷

    Rank: 2

    积分
    45
    发表于 2020-7-31 07:58:13 | 显示全部楼层
    支持 不错哦~
    回复

    使用道具 举报

  • TA的每日心情

    11 小时前
  • 签到天数: 22 天

    [LV.4]偶尔看看III

    2

    主题

    310

    帖子

    25

    积分

    初级影迷

    Rank: 2

    积分
    25
    发表于 2020-7-31 09:16:17 | 显示全部楼层
    感谢楼主分享
    回复

    使用道具 举报

  • TA的每日心情
    慵懒
    7 小时前
  • 签到天数: 135 天

    [LV.7]常住居民III

    6

    主题

    1945

    帖子

    104

    积分

    中级影迷

    Rank: 3Rank: 3

    积分
    104
    QQ
    发表于 2020-7-31 10:04:09 | 显示全部楼层
    谢谢分享谢谢分享
    回复

    使用道具 举报

  • TA的每日心情

    11 小时前
  • 签到天数: 467 天

    [LV.9]以坛为家II

    37

    主题

    5313

    帖子

    646

    积分

    专业影迷

    Rank: 8Rank: 8

    积分
    646
    发表于 2020-8-1 00:06:49 | 显示全部楼层
    很不错!谢谢分享。
    回复

    使用道具 举报

  • TA的每日心情
    开心
    20 小时前
  • 签到天数: 101 天

    [LV.6]常住居民II

    2

    主题

    167

    帖子

    92

    积分

    中级影迷

    Rank: 3Rank: 3

    积分
    92
    发表于 2020-8-4 00:05:49 | 显示全部楼层
    感谢楼主分享
    回复

    使用道具 举报

    您需要登录后才可以回帖 登录 | 立即注册

    本版积分规则

    QQ|Archiver|手机版|小黑屋|影迷乐园  

    GMT+8, 2020-8-12 20:54 , Processed in 0.157819 second(s), 34 queries .

    Powered by Discuz! X3.3

    © 2001-2017 Comsenz Inc.

    快速回复 返回顶部 返回列表