请选择 进入手机版 | 继续访问电脑版

YMLY-影迷乐园-特效字幕 蓝光原盘 1080P 高清动漫电影电视剧

 找回密码
 立即注册
搜索
查看: 35|回复: 3

[美国] [百度][2001][1080P][消消气.S02][英语外挂简体中字][MKV][28.97GB][Curb.Your.Enthusiasm.Complete.S02.1080p.AMZN.WEB-DL.DD+2.0.H264-AJP69]

[复制链接]
  • TA的每日心情
    慵懒
    10 小时前
  • 签到天数: 396 天

    [LV.9]以坛为家II

    541

    主题

    1091

    帖子

    4599

    积分

    超级版主

    Rank: 16Rank: 16Rank: 16Rank: 16

    积分
    4599

    超版勋章版主勋章优秀版主土豪勋章小土豪勋章主题达人百分百好孩子最佳新人影迷男神

    发表于 2020-7-31 21:39:12 | 显示全部楼层 |阅读模式
    字幕为官方译本,已修改了字体。


    ◎译  名 消消气 第二季 / 处女座人生 第二季 / 抑制热情 第二季 / 龟毛人生 第二季
    ◎片  名 Curb Your Enthusiasm Season 2
    ◎年  代 2001
    ◎产  地 美国
    ◎类  别 喜剧
    ◎语  言 英语
    ◎上映日期 2001-09-23(美国)
    ◎IMDb评分  8.1/10 from 1052 users
    ◎IMDb链接  https://www.imdb.com/title/tt0551405
    ◎豆瓣评分 9.2/10 from 314 users
    ◎豆瓣链接 https://movie.douban.com/subject/2348559/
    ◎集  数 10
    ◎片  长 30分钟
    ◎导  演 拉里·戴维 Larry David
    ◎编  剧 拉里·戴维 Larry David
    ◎主  演 Larry David


    ◎标  签 美剧 | HBO | 喜剧 | 电视剧 | 美国 | LarryDavid | 2001 | larrydavid

    ◎简  介  

      这部剧集是上世纪九十年代最流行的情景喜剧《Seinfeld》的主创之一拉里·大卫(Larry meijubar.net David)自编自演,根据他在洛杉矶影艺圈的生活创造的喜剧。他把《Seinfeld》的风格推向极端化。HBO因是有线电视所以不需要很大的观众圈,所以HBO上的剧集常常风格独具。《抑制热情》显得特别生活化,很是写意,有很多现场发挥,刚开始播时观众圈不大,之后开始名声见长。拉里·大卫凭此剧获艾美奖2000年度喜剧类剧集最佳男主角提名。
      本剧是根据拉里-大卫当初在洛杉矶演艺圈的亲身经历改变而成,并由大卫自编自演而成的喜剧。把《Seinfeld》的风格推向了极端化。通过《抑制热情》让观众看到了大卫的正直、大方和谦虚,这位创作大师通过HBO带给观众无数的欢笑。而剧情游弋在真实与虚构之间,大卫和演员们把真实的洛杉矶生活呈现在银幕上,就仿佛有一架摄影机,随时把那真实的经历实况转播给观众一样。更重要的是,本剧本身是没有剧本的,往往依靠演员们的即兴表演赋予演出进度和新鲜感。而这造就了本剧的变幻莫测和与众不同。

    ◎获奖情况  

      第2届美国电影学会奖(2001)
      年度佳剧
    1. General
    2. Unique ID                      : 176151218054814005880133048352239915633 (0x84857D9549BEFF5AA2646D019C161271)
    3. Complete name                  : E:\影视\消消气\S02\Curb.Your.Enthusiasm.S02E01.The.Car.Salesman.1080p.AMZN.WEB-DL.DD+2.0.H.264-AJP69.mkv
    4. Format                         : Matroska
    5. Format version                 : Version 4
    6. File size                      : 2.97 GiB
    7. Duration                       : 29 min 44 s
    8. Overall bit rate mode          : Variable
    9. Overall bit rate               : 14.3 Mb/s
    10. Encoded date                   : UTC 2017-07-27 15:15:51
    11. Writing application            : mkvmerge v13.0.0 ('The Juggler') 64bit
    12. Writing library                : libebml v1.3.4 + libmatroska v1.4.5

    13. Video
    14. ID                             : 1
    15. Format                         : AVC
    16. Format/Info                    : Advanced Video Codec
    17. Format profile                 : High@L4
    18. Format settings                : CABAC / 4 Ref Frames
    19. Format settings, CABAC         : Yes
    20. Format settings, Reference fra : 4 frames
    21. Codec ID                       : V_MPEG4/ISO/AVC
    22. Duration                       : 29 min 44 s
    23. Bit rate mode                  : Variable
    24. Bit rate                       : 14.1 Mb/s
    25. Maximum bit rate               : 15.0 Mb/s
    26. Width                          : 1 920 pixels
    27. Height                         : 1 080 pixels
    28. Display aspect ratio           : 16:9
    29. Frame rate mode                : Constant
    30. Frame rate                     : 29.970 (30000/1001) FPS
    31. Color space                    : YUV
    32. Chroma subsampling             : 4:2:0
    33. Bit depth                      : 8 bits
    34. Scan type                      : Progressive
    35. Bits/(Pixel*Frame)             : 0.227
    36. Stream size                    : 2.93 GiB (98%)
    37. Default                        : Yes
    38. Forced                         : No
    39. Color range                    : Limited
    40. Color primaries                : BT.709
    41. Transfer characteristics       : BT.709
    42. Matrix coefficients            : BT.709

    43. Audio
    44. ID                             : 2
    45. Format                         : E-AC-3
    46. Format/Info                    : Enhanced AC-3
    47. Commercial name                : Dolby Digital Plus
    48. Codec ID                       : A_EAC3
    49. Duration                       : 29 min 44 s
    50. Bit rate mode                  : Constant
    51. Bit rate                       : 224 kb/s
    52. Channel(s)                     : 2 channels
    53. Channel layout                 : L R
    54. Sampling rate                  : 48.0 kHz
    55. Frame rate                     : 31.250 FPS (1536 SPF)
    56. Compression mode               : Lossy
    57. Stream size                    : 47.7 MiB (2%)
    58. Language                       : English
    59. Service kind                   : Complete Main
    60. Default                        : Yes
    61. Forced                         : No

    62. Text
    63. ID                             : 3
    64. Format                         : UTF-8
    65. Codec ID                       : S_TEXT/UTF8
    66. Codec ID/Info                  : UTF-8 Plain Text
    67. Duration                       : 28 min 46 s
    68. Bit rate                       : 110 b/s
    69. Count of elements              : 755
    70. Stream size                    : 23.4 KiB (0%)
    71. Language                       : English
    72. Default                        : No
    73. Forced                         : No

    74. Menu
    75. 00:00:00.000                   : en:Studio Logo
    76. 00:00:05.000                   : en:Title Sequence
    77. 00:00:12.000                   : en:Cheryl chastises Larry for lounging about in the hotel room
    78. 00:02:04.000                   : en:Larry and Cheryl look at the house
    79. 00:06:04.000                   : en:Cheryl is sold on the house
    80. 00:06:55.000                   : en:Jeff harps on Larry to start writing again and Larry finds something else
    81. 00:10:30.000                   : en:Cheryl and Larry both have good news
    82. 00:12:38.000                   : en:Larry meets with Jason to catch up
    83. 00:16:46.000                   : en:Larry has his first day as a car salesman
    84. 00:20:39.000                   : en:Larry comes home to the new house
    85. 00:22:07.000                   : en:Larry hears a strange noise in the house
    86. 00:23:40.000                   : en:Richard confronts Larry about what he told Jeff
    87. 00:26:19.000                   : en:Larry tells Cheryl he got fired and a repair man comes to investigate
    88. 00:27:32.000                   : en:Larry decides to work with Jason
    89. 00:28:39.000                   : en:End Credits

    复制代码






    购买主题 本主题需向作者支付 20 大洋 才能浏览
    回复

    使用道具 举报

  • TA的每日心情

    10 小时前
  • 签到天数: 467 天

    [LV.9]以坛为家II

    37

    主题

    5313

    帖子

    646

    积分

    专业影迷

    Rank: 8Rank: 8

    积分
    646
    发表于 2020-8-1 00:05:15 | 显示全部楼层
    感谢分享这么好的资源!
    回复

    使用道具 举报

  • TA的每日心情

    12 小时前
  • 签到天数: 16 天

    [LV.4]偶尔看看III

    0

    主题

    123

    帖子

    45

    积分

    初级影迷

    Rank: 2

    积分
    45
    发表于 2020-8-1 00:06:28 | 显示全部楼层
    很早的电视剧 支持!
    回复

    使用道具 举报

  • TA的每日心情
    慵懒
    6 小时前
  • 签到天数: 135 天

    [LV.7]常住居民III

    6

    主题

    1945

    帖子

    104

    积分

    中级影迷

    Rank: 3Rank: 3

    积分
    104
    QQ
    发表于 2020-8-1 07:41:47 | 显示全部楼层
    谢谢分享谢谢分享
    回复

    使用道具 举报

    您需要登录后才可以回帖 登录 | 立即注册

    本版积分规则

    QQ|Archiver|手机版|小黑屋|影迷乐园  

    GMT+8, 2020-8-12 19:54 , Processed in 0.133381 second(s), 32 queries .

    Powered by Discuz! X3.3

    © 2001-2017 Comsenz Inc.

    快速回复 返回顶部 返回列表