请选择 进入手机版 | 继续访问电脑版

YMLY-影迷乐园-特效字幕 蓝光原盘 1080P 高清动漫电影电视剧

 找回密码
 立即注册
搜索
查看: 35|回复: 5

[美国] [百度][2002][1080P][消消气.S03][英语外挂简体中字][MKV][29.84GB][Curb.Your.Enthusiasm.Complete.S03.1080p.AMZN.WEB-DL.DD+2.0.H264-AJP69]

[复制链接]
  • TA的每日心情
    慵懒
    10 小时前
  • 签到天数: 396 天

    [LV.9]以坛为家II

    541

    主题

    1091

    帖子

    4599

    积分

    超级版主

    Rank: 16Rank: 16Rank: 16Rank: 16

    积分
    4599

    超版勋章版主勋章优秀版主土豪勋章小土豪勋章主题达人百分百好孩子最佳新人影迷男神

    发表于 2020-8-1 01:46:20 | 显示全部楼层 |阅读模式
    字幕为官方译本,已修改了字体。


    ◎译  名 消消气 第三季 / 处女座人生 第三季 / 抑制热情 第三季 / 龟毛人生 第三季
    ◎片  名 Curb Your Enthusiasm Season 3
    ◎年  代 2002
    ◎产  地 美国
    ◎类  别 喜剧
    ◎语  言 英语
    ◎上映日期 2002-09-15(美国)
    ◎IMDb评分  8.5/10 from 978 users
    ◎IMDb链接  https://www.imdb.com/title/tt0551385
    ◎豆瓣评分 9.3/10 from 261 users
    ◎豆瓣链接 https://movie.douban.com/subject/2154357/
    ◎集  数 10
    ◎片  长 30分钟
    ◎导  演 罗伯特·B·维德 Robert B. Weide
    ◎编  剧 拉里·戴维 Larry David
    ◎主  演 Larry David


    ◎标  签 美剧 | 喜剧 | HBO | 美国 | 电视剧 | LarryDavid | 2002 | comedy

    ◎简  介  

      Aired on HBO from 15 September 2002 to 17 November 2002
    1. General
    2. Unique ID                      : 170178717690624483216249779449840127424 (0x80073A9496A386F998C8D7095829CDC0)
    3. Complete name                  : E:\影视\消消气\S03\Curb.Your.Enthusiasm.S03E01.Chets.Shirt.1080p.AMZN.WEB-DL.DD+2.0.H.264-AJP69.mkv
    4. Format                         : Matroska
    5. Format version                 : Version 4
    6. File size                      : 2.99 GiB
    7. Duration                       : 29 min 58 s
    8. Overall bit rate mode          : Variable
    9. Overall bit rate               : 14.3 Mb/s
    10. Encoded date                   : UTC 2017-08-19 20:58:02
    11. Writing application            : mkvmerge v13.0.0 ('The Juggler') 64bit
    12. Writing library                : libebml v1.3.4 + libmatroska v1.4.5

    13. Video
    14. ID                             : 1
    15. Format                         : AVC
    16. Format/Info                    : Advanced Video Codec
    17. Format profile                 : High@L4
    18. Format settings                : CABAC / 4 Ref Frames
    19. Format settings, CABAC         : Yes
    20. Format settings, Reference fra : 4 frames
    21. Codec ID                       : V_MPEG4/ISO/AVC
    22. Duration                       : 29 min 58 s
    23. Bit rate mode                  : Variable
    24. Bit rate                       : 14.1 Mb/s
    25. Maximum bit rate               : 15.0 Mb/s
    26. Width                          : 1 920 pixels
    27. Height                         : 1 080 pixels
    28. Display aspect ratio           : 16:9
    29. Frame rate mode                : Constant
    30. Frame rate                     : 29.970 (30000/1001) FPS
    31. Color space                    : YUV
    32. Chroma subsampling             : 4:2:0
    33. Bit depth                      : 8 bits
    34. Scan type                      : Progressive
    35. Bits/(Pixel*Frame)             : 0.226
    36. Stream size                    : 2.94 GiB (98%)
    37. Default                        : Yes
    38. Forced                         : No
    39. Color range                    : Limited
    40. Color primaries                : BT.709
    41. Transfer characteristics       : BT.709
    42. Matrix coefficients            : BT.709

    43. Audio
    44. ID                             : 2
    45. Format                         : E-AC-3
    46. Format/Info                    : Enhanced AC-3
    47. Commercial name                : Dolby Digital Plus
    48. Codec ID                       : A_EAC3
    49. Duration                       : 29 min 58 s
    50. Bit rate mode                  : Constant
    51. Bit rate                       : 224 kb/s
    52. Channel(s)                     : 2 channels
    53. Channel layout                 : L R
    54. Sampling rate                  : 48.0 kHz
    55. Frame rate                     : 31.250 FPS (1536 SPF)
    56. Compression mode               : Lossy
    57. Stream size                    : 48.0 MiB (2%)
    58. Language                       : English
    59. Service kind                   : Complete Main
    60. Default                        : Yes
    61. Forced                         : No

    62. Text
    63. ID                             : 3
    64. Format                         : UTF-8
    65. Codec ID                       : S_TEXT/UTF8
    66. Codec ID/Info                  : UTF-8 Plain Text
    67. Duration                       : 29 min 21 s
    68. Bit rate                       : 113 b/s
    69. Count of elements              : 809
    70. Stream size                    : 24.3 KiB (0%)
    71. Language                       : English
    72. Default                        : No
    73. Forced                         : No

    74. Menu
    75. 00:00:00.000                   : en:Studio Logo
    76. 00:00:05.000                   : en:Title Sequence
    77. 00:00:12.000                   : en:Jeff and Larry take a walk through the neighborhood
    78. 00:01:45.000                   : en:Larry picks Cheryl up from Barbara's house
    79. 00:04:53.000                   : en:Larry meets the other investors for the restaurant
    80. 00:08:52.000                   : en:Cheryl is skeptical about Larry's new venture
    81. 00:11:56.000                   : en:Jeff and Larry look for uniforms for the restaurant
    82. 00:15:17.000                   : en:Jeff and Larry pitch their different uniform ideas
    83. 00:17:40.000                   : en:Ted welcomes everyone to the party
    84. 00:19:09.000                   : en:Larry is still mad about not being the Cowardly Lion
    85. 00:20:04.000                   : en:Larry gets his teeth fixed
    86. 00:22:40.000                   : en:Larry gets home from the dentist
    87. 00:26:33.000                   : en:Everyone watches Wizard of Oz until Barbara comes over
    88. 00:28:42.000                   : en:Ted throws out the shirt
    89. 00:28:52.000                   : en:End Credits

    复制代码






    购买主题 本主题需向作者支付 20 大洋 才能浏览
    回复

    使用道具 举报

  • TA的每日心情
    慵懒
    7 小时前
  • 签到天数: 135 天

    [LV.7]常住居民III

    6

    主题

    1945

    帖子

    104

    积分

    中级影迷

    Rank: 3Rank: 3

    积分
    104
    QQ
    发表于 2020-8-1 07:40:54 | 显示全部楼层
    谢谢分享谢谢分享
    回复

    使用道具 举报

  • TA的每日心情
    开心
    12 小时前
  • 签到天数: 401 天

    [LV.9]以坛为家II

    0

    主题

    651

    帖子

    86

    积分

    中级影迷

    Rank: 3Rank: 3

    积分
    86
    发表于 2020-8-1 08:47:09 | 显示全部楼层
    感谢分享!
    回复

    使用道具 举报

  • TA的每日心情

    20 小时前
  • 签到天数: 39 天

    [LV.5]常住居民I

    0

    主题

    326

    帖子

    90

    积分

    中级影迷

    Rank: 3Rank: 3

    积分
    90
    发表于 2020-8-1 08:59:28 | 显示全部楼层
    谢谢楼主分享
    回复

    使用道具 举报

  • TA的每日心情
    慵懒
    18 小时前
  • 签到天数: 68 天

    [LV.6]常住居民II

    1

    主题

    982

    帖子

    50

    积分

    初级影迷

    Rank: 2

    积分
    50
    发表于 2020-8-4 16:17:50 | 显示全部楼层
    谢谢分享!!
    回复

    使用道具 举报

  • TA的每日心情
    开心
    9 分钟前
  • 签到天数: 53 天

    [LV.5]常住居民I

    3

    主题

    632

    帖子

    35

    积分

    初级影迷

    Rank: 2

    积分
    35
    发表于 2020-8-4 16:59:36 | 显示全部楼层
    感谢分享,支持一下
    回复

    使用道具 举报

    您需要登录后才可以回帖 登录 | 立即注册

    本版积分规则

    QQ|Archiver|手机版|小黑屋|影迷乐园  

    GMT+8, 2020-8-12 20:33 , Processed in 0.144490 second(s), 32 queries .

    Powered by Discuz! X3.3

    © 2001-2017 Comsenz Inc.

    快速回复 返回顶部 返回列表